Національна музична премія - Українська пісня року (2019) WEBRip 1080p | Pop

Відповісти в темі
 

Сідера не було: Ніколи

Лічерів:  1  [  0 KB/s  ]  
   
 
Автор Повідомлення

Anonymous ®

Стаж: 21 день

Повідомлень: 73093

Опублікувати 19-Чер-2022 15:31

[Цитувати]

Національна музична премія - Українська пісня року (2019) WEBRip 1080p | Pop Стиль: Pop
Країна: Україна
Опис:
12 лютого 2020 року у Палаці “Україна” в Києві відбудеться національна музична церемонія “Пісня року” за участі найяскравіших зірок українського шоу-бізнесу. Тут будуть кращі з найкращих та всі ті, без кого просто неможливо уявити жоден актуальний музичний захід.
Національна музична церемонія
Звичайно, не обійдеться і без зіркових ведучих. Цього вечора на нашій сцені - Катерина Осадча та Юрій Горбунов! Кращі пісні, зіркові артисти та неймовірне шоу, яке неможливо пропустити! Ти маєш бути там!
У концерті брали участь:
Ніна Матвієнко
Олександр Пономарьов
Павло Зібров
Олег Винник
Дзідзіьо
Наталя Могилевська
MÉLOVIN
Михайло Поплавський
Мішель Андраде
Сегій Бабкін
NK
Тривалість: 01:51:10
Якість: WEBRip
Відео: кодек: H.264 розмір кадру: 1920 х 1080 бітрейт: 3200 кб/с
Аудіо: мова: українська кодек: AAC 2.0 бітрейт: 128 кб/с

Про файл:

General
Unique ID : 185559440526314525625021500438580822466 (0x8B9972C39D41F51543674E8E576401C2)
Complete name : D:\Documents\Torrents\Rizne\Національна музична премія.Українська пісня року.2019.WEBRip.1080p.mkv
Format : Matroska
Format version : Version 4
File size : 2.60 GiB
Duration : 1 h 51 min
Overall bit rate : 3 354 kb/s
Movie name : rip by sergiyko
Encoded date : UTC 2020-07-05 08:11:35
Writing application : mkvmerge v47.0.0 ('Black Flag') 64-bit
Writing library : libebml v1.3.10 + libmatroska v1.5.2
Video
ID : 1
Format : AVC
Format/Info : Advanced Video Codec
Format profile :
Format settings : CABAC / 3 Ref Frames
Format settings, CABAC : Yes
Format settings, Reference : 3 frames
Codec ID : V_MPEG4/ISO/AVC
Duration : 1 h 51 min
Bit rate : 3 224 kb/s
Width : 1 920 pixels
Height : 1 080 pixels
Display aspect ratio : 16:9
Frame rate mode : Constant
Frame rate : 25.000 FPS
Color space : YUV
Chroma subsampling : 4:2:0
Bit depth : 8 bits
Scan type : Progressive
Bits/(Pixel*Frame) : 0.062
Stream size : 2.50 GiB (96%)
Writing library : x264 core 155 r2901 7d0ff22
Language : Ukrainian
Default : Yes
Forced : No
Color range : Limited
Color primaries : BT.709
Transfer characteristics : BT.709
Matrix coefficients : BT.709
Audio
ID : 2
Format : AAC LC
Format/Info : Advanced Audio Codec Low Complexity
Codec ID : A_AAC-2
Duration : 1 h 51 min
Bit rate : 128 kb/s
Channel(s) : 2 channels
Channel layout : L R
Sampling rate : 44.1 kHz
Frame rate : 43.066 FPS (1024 SPF)
Compression mode : Lossy
Stream size : 102 MiB (4%)
Language : Ukrainian
Default : Yes
Forced : No
Скріншоти:

https://www.youtube.com/watch?v=A6McqLOhe4o
Natsionalna muzychna premiya.Ukrayinska pisnya roku.2019.WEBRip.1080p.mkv.torrent 
Торент: 130A8368187E96EC66DD0131E27742866AA83288

Завантажити .торрент

Завантажити

27 KB

Статус: * не перевірено
Завантажено: [ 2022-06-19 15:31 ] ·
Розмір: 2.6 GB
 
[Профіль] [ПП]
Показати повідомлення:    
Відповісти в темі

Поточний час: 04-Лип 21:10

Часовий пояс: UTC ± 0



Ви не можете створювати нові теми на форумі
Ви не можете відповідати в темах на форумі
Ви не можете редагувати свої повідомлення на форумі
Ви не можете голосувати в опитуваннях на форумі
Ви не можете прикріплювати файли
Ви можете завантажувати файли