Пошук знайшов 314 збігів

Автор Повідомлення

Anonymous

Опублікувати 15-Чер-2022 08:14

[Цитувати]

Гайтана | Колекція [4 альбоми + 1 Maxi CDS] (2005-2010) [APE] | Pop Soul Стиль: Pop
Країна, місто: Україна, Київ
Сайти: Офіційний сайт
Виконавці: Гайтана Ессамі, гурт С.К.А.Й.
Видавець: Lavina Music
Альбоми:

2003 - О тебе

01 - Лондон - дожди - 3:28
02 - Я не буду вспоминать тебя - 5:32
03 - Всё давно ушло - 3:59
04 - Діти світла - 3:41
05 - Ты не обещай - 4:31
06 - Не о тебе - 4:23
07 - Звезды - 3:27
08 - Мечты - 4:32
09 - Спутник - 3:51
10 - Убегу - 5:29
11 - Я ищу - 4:33
Тривалість: 00:47:25
Мова: російська (01-03, 05-11), українська (04)

EAC Log

Exact Audio Copy V0.99 prebeta 5 from 4. May 2009
EAC extraction logfile from 26. November 2009, 18:34
Гайтана & Unity / О тебе
Used drive : HL-DT-STDVDRAM GSA-H10N Adapter: 0 ID: 1
Read mode : Secure
Utilize accurate stream : Yes
Defeat audio cache : Yes
Make use of C2 pointers : No
Read offset correction : 667
Overread into Lead-In and Lead-Out : No
Fill up missing offset samples with silence : Yes
Delete leading and trailing silent blocks : No
Null samples used in CRC calculations : No
Used interface : Native Win32 interface for Win NT & 2000
Used output format : Monkey's Audio Lossless Encoder v3.99 DLL
Sample format : High Lossless Compression
TOC of the extracted CD
Track | Start | Length | Start sector | End sector
---------------------------------------------------------
1 | 0:00.00 | 3:27.49 | 0 | 15573
2 | 3:27.49 | 5:32.18 | 15574 | 40491
3 | 8:59.67 | 3:58.66 | 40492 | 58407
4 | 12:58.58 | 3:41.00 | 58408 | 74982
5 | 16:39.58 | 4:31.10 | 74983 | 95317
6 | 21:10.68 | 4:22.61 | 95318 | 115028
7 | 25:33.54 | 3:26.48 | 115029 | 130526
8 | 29:00.27 | 4:31.55 | 130527 | 150906
9 | 33:32.07 | 3:51.20 | 150907 | 168251
10 | 37:23.27 | 5:29.00 | 168252 | 192926
11 | 42:52.27 | 4:32.42 | 192927 | 213368
12 | 49:56.69 | 7:16.03 | 224769 | 257471
Range status and errors
Selected range
Filename E:\Music3\Ukrainian\Г\Гайтана\2003 - О тебе\2003 - Гайтана & Unity - О тебе.ape
Peak level 99.2 %
Range quality 100.0 %
Test CRC C1756DBB
Copy CRC C1756DBB
Copy OK
No errors occurred
AccurateRip summary
Track 1 not present in database
Track 2 not present in database
Track 3 not present in database
Track 4 not present in database
Track 5 not present in database
Track 6 not present in database
Track 7 not present in database
Track 8 not present in database
Track 9 not present in database
Track 10 not present in database
Track 11 not present in database
None of the tracks are present in the AccurateRip database
End of status report

Data CD

Якість: DVDRip
кодек: MPEG 1 (VCD)
розмір кадру: 352*288 (4:3)
Аудіо: мова: російська
кодек: Mpeg-1 audio Layer 2 44100 Гц
LANDAN.mpg (Тривалість: 00:03:25, бітрейт відео: 2500 кбіт/сек, бітрейт аудіо: 224 кбіт/сек)


2005 - Слiдом за тобою

01 - Слiдом за тобою - 3:32
02 - Самотня босса - 3:42
03 - Вiдшукаю - 4:17
04 - Острова - 4:27
05 - Лондон-дожди - 3:25
06 - Там, де голос твій - 3:53
07 - Тану - 3:20
08 - Абунае - 3:40
09 - На лінгі йо - 3:17
10 - Діти світла - 3:38
11 - Близкие люди - 3:36
12 - Желания - 4:06
Тривалість: 00:44:54
Мова: українська (01-03, 06-10), російська (04-05, 11-12)

EAC Log

Exact Audio Copy V0.99 prebeta 4 from 23. January 2008
Отчёт EAC об извлечении, выполненном 4. мая 2009, 23:13
Гайтана / Слiдом за тобою
Дисковод: HL-DT-STDVD-RAM GSA-E60L Adapter: 2 ID: 0
Режим чтения : Достоверность
Использование точного потока : Да
Отключение кэша аудио : Да
Использование указателей C2 : Нет
Коррекция смещения при чтении : 102
Способность читать области Lead-in и Lead-out : Нет
Заполнение пропущенных сэмплов тишиной : Да
Удаление блоков с тишиной в начале и конце : Нет
При вычислениях CRC использовались нулевые сэмплы : Да
Интерфейс : Установленный внешний ASPI-интерфейс
Выходной формат : Внутренние WAV-операции
Формат сэмплов : 44.100 Гц; 16 бит; стерео
TOC извлечённого CD
Трек | Старт | Длительность | Начальный сектор | Конечный сектор
---------------------------------------------------------------------
1 | 0:00.00 | 3:32.34 | 0 | 15933
2 | 3:32.34 | 3:41.50 | 15934 | 32558
3 | 7:14.09 | 4:16.41 | 32559 | 51799
4 | 11:30.50 | 4:27.10 | 51800 | 71834
5 | 15:57.60 | 3:25.07 | 71835 | 87216
6 | 19:22.67 | 3:52.72 | 87217 | 104688
7 | 23:15.64 | 3:19.65 | 104689 | 119678
8 | 26:35.54 | 3:39.50 | 119679 | 136153
9 | 30:15.29 | 3:17.24 | 136154 | 150952
10 | 33:32.53 | 3:38.37 | 150953 | 167339
11 | 37:11.15 | 3:36.23 | 167340 | 183562
12 | 40:47.38 | 4:06.00 | 183563 | 202012
13 | 47:25.38 | 13:57.30 | 213413 | 276217
Характеристики диапазона извлечения и сообщения об ошибках
Выбранный диапазон
Имя файла H:\Рабочий стол\Гайтана - Слiдом за тобою.wav
Пиковый уровень 98.3 %
Качество диапазона 99.9 %
CRC копии 43E0BC8F
Копирование... OK
Ошибок не произошло
AccurateRip: сводка
Трек 1 нет в базе данных
Трек 2 нет в базе данных
Трек 3 нет в базе данных
Трек 4 нет в базе данных
Трек 5 нет в базе данных
Трек 6 нет в базе данных
Трек 7 нет в базе данных
Трек 8 нет в базе данных
Трек 9 нет в базе данных
Трек 10 нет в базе данных
Трек 11 нет в базе данных
Трек 12 нет в базе данных
Ни одного трека нет в базе AccurateRip
Конец отчёта

2007 - Капли дождя

01 - Капли дождя - 3:40
02 - Шаленій - 3:22
03 - Не йди (дует з гуртом С.К.А.Й.) - 4:04
04 - Але... - 3:36
05 - Два вікна - 3:44
06 - Танці - 3:31
07 - Бажання - 4:08
08 - Капли дождя (lounge mix) - 3:24
09 - Капли дождя (dance mix) - 4:12
Тривалість: 00:33:40
Мова: українська (02-07). російська (01, 08-09)

EAC Log

Exact Audio Copy V0.99 prebeta 4 from 23. January 2008
EAC extraction logfile from 25. April 2009, 16:28
Гайтана / Капли дождя
Used drive : HL-DT-STDVDRAM GSA-4167B Adapter: 1 ID: 1
Read mode : Secure
Utilize accurate stream : Yes
Defeat audio cache : Yes
Make use of C2 pointers : No
Read offset correction : 667
Overread into Lead-In and Lead-Out : No
Fill up missing offset samples with silence : Yes
Delete leading and trailing silent blocks : No
Null samples used in CRC calculations : Yes
Used interface : Native Win32 interface for Win NT & 2000
Used output format : Internal WAV Routines
Sample format : 44.100 Hz; 16 Bit; Stereo
TOC of the extracted CD
Track | Start | Length | Start sector | End sector
---------------------------------------------------------
1 | 0:00.00 | 3:40.27 | 0 | 16526
2 | 3:40.27 | 3:21.49 | 16527 | 31650
3 | 7:02.01 | 4:03.64 | 31651 | 49939
4 | 11:05.65 | 3:35.51 | 49940 | 66115
5 | 14:41.41 | 3:43.59 | 66116 | 82899
6 | 18:25.25 | 3:31.06 | 82900 | 98730
7 | 21:56.31 | 4:07.68 | 98731 | 117323
8 | 26:04.24 | 3:23.38 | 117324 | 132586
9 | 29:27.62 | 4:12.35 | 132587 | 151521
10 | 36:12.22 | 42:13.31 | 162922 | 352927
Range status and errors
Selected range
Filename E:\Гайтана\2007 - Капли дождя\lossless\Гайтана - Капли дождя.wav
Peak level 95.5 %
Range quality 99.9 %
Copy CRC C75EEABD
Copy OK
No errors occurred
AccurateRip summary
Track 1 accurately ripped (confidence 1) [C95E3E8A]
Track 2 accurately ripped (confidence 1) [B1044337]
Track 3 accurately ripped (confidence 1) [A7321ED2]
Track 4 accurately ripped (confidence 1) [36FB84B0]
Track 5 accurately ripped (confidence 1) [6C37A383]
Track 6 accurately ripped (confidence 1) [F935CC7F]
Track 7 accurately ripped (confidence 1) [50E3D42C]
Track 8 accurately ripped (confidence 1) [63B90A2B]
Track 9 accurately ripped (confidence 1) [16BC561D]
All tracks accurately ripped
End of status report

2008 - Тайные Желания

01 - Тайные Желания - 3:21
02 - Когда Губы Твои Близко - 3:30
03 - Капли Дождя - 3:40
04 - Дивне Кохання - 3:21
05 - Скучаю - 3:38
06 - Пластиковая Девочка - 3:19
07 - Лето - 4:03
08 - Кто Я Для Тебя - 3:59
09 - Осень - 4:00
10 - Я Люблю Тебе (Як Ніколи Ще Нікого Не Любила) - 4:29
11 - Девочка-Звездочка - 4:15
12 - Фантазия - 3:52
13 - Без Тебя - 6:08
14 - Хто Ти - 4:02
Тривалість: 00:55:35
Мова: українська (04, 10, 12, 14), російська (01-03, 05-09, 11, 13)

EAC Log

Exact Audio Copy V0.99 prebeta 4 from 23. January 2008
Отчёт EAC об извлечении, выполненном 1. октября 2009, 1:25
Гайтана / Тайные Желания
Дисковод: Optiarc DVD RW AD-7203A Adapter: 3 ID: 0
Режим чтения : Достоверность
Использование точного потока : Да
Отключение кэша аудио : Да
Использование указателей C2 : Нет
Коррекция смещения при чтении : 48
Способность читать области Lead-in и Lead-out : Нет
Заполнение пропущенных сэмплов тишиной : Да
Удаление блоков с тишиной в начале и конце : Нет
При вычислениях CRC использовались нулевые сэмплы : Да
Интерфейс : Встроенный Win32-интерфейс для Win NT/2000
Выходной формат : Внутренние WAV-операции
Формат сэмплов : 44.100 Гц; 16 бит; стерео
TOC извлечённого CD
Трек | Старт | Длительность | Начальный сектор | Конечный сектор
---------------------------------------------------------------------
1 | 0:00.00 | 3:20.48 | 0 | 15047
2 | 3:20.48 | 3:30.36 | 15048 | 30833
3 | 6:51.09 | 3:39.71 | 30834 | 47329
4 | 10:31.05 | 3:21.06 | 47330 | 62410
5 | 13:52.11 | 3:38.34 | 62411 | 78794
6 | 17:30.45 | 3:18.53 | 78795 | 93697
7 | 20:49.23 | 4:02.39 | 93698 | 111886
8 | 24:51.62 | 3:58.63 | 111887 | 129799
9 | 28:50.50 | 3:59.42 | 129800 | 147766
10 | 32:50.17 | 4:29.05 | 147767 | 167946
11 | 37:19.22 | 4:15.09 | 167947 | 187080
12 | 41:34.31 | 3:51.62 | 187081 | 204467
13 | 45:26.18 | 6:07.45 | 204468 | 232037
14 | 51:33.63 | 4:02.02 | 232038 | 250189
15 | 58:07.65 | 11:43.25 | 261590 | 314339
Характеристики диапазона извлечения и сообщения об ошибках
Выбранный диапазон
Имя файла E:\p2p\Гайтана - Тайные Желания\Гайтана - Тайные Желания.wav
Пиковый уровень 97.7 %
Качество диапазона 100.0 %
CRC копии 5C194B9A
Копирование... OK
Ошибок не произошло
Конец отчёта

Data CD

Якість: DVDRip
кодек: MPEG 1 (VCD)
розмір кадру: 352*288 (4:3)
Аудіо: мова: українська
кодек: Mpeg-1 audio Layer 2 44100 Гц
Капли Дождя.mpg (Тривалість: 00:03:45, бітрейт відео: 1424 кбіт/сек, бітрейт аудіо: 192 кбіт/сек)



Тайные Желания.mpg (Тривалість: 00:03:24, бітрейт відео: 1424 кбіт/сек, бітрейт аудіо: 224 кбіт/сек)


2010 - Только сегодня

01 - Слушаю и повинуюсь - 4:08
02 - Только сегодня - 3:53
03 - Химия - 3:28
04 - Только с тобой - 3:43
05 - Ангел - 3:47
06 - Навсегда - 3:29
07 - Люби меня - 3:17
08 - Алло - 3:56
09 - Нет родней - 4:36
10 - Я дышу тобой - 3:58
11 - Небо - 3:42
12 - На своей планете - 3:45
13 - Самый лучший - 4:56
14 - Запомни меня - 4:34
15 - Текіла (live version) - 7:24
16 - Tomorrow (live version) - 5:14
17 - Diamond Rings - 4:12
Тривалість: 01:12:01
Мова: російська (01-14), українська (15), англійська (16-17)

EAC Log

відсутній
Тривалість: 02:14:10
Мова: українська (1-5), російська (1-5), англійська (5)
Аудіо-кодек: APE
Ріп: image+ Embedded CUE/EAC/audiochecker/cover), FLAC tracks (2010)
EAC: Secure + Accurate stream + disable cache/C2
Бітрейт: lossless (~942-1006 кбіт/с)
Джерело: власний ріп (1), NineOneOne (2), BoneyUndKlaid (3), ABC Warrior (4), enakievoman (5)

Додаткова інформація

До дискографії розшукуються наступні альбоми:
2006 - Два вікна (single)
2007 - Шаленій (single)
2008 - Kукaбaррa
2009 - Нeщoдaвнo (single)
2009 - Люби меня (single)

ОНОВЛЕНО 26.11.2009

Додано альбом "2003 - О тебе - Гайтана & Unity"

ОНОВЛЕНО 09.07.2010

Додано альбом "2010 - Только сегодня"
Джерело enakievoman (rutracker.org)

Anonymous

Опублікувати 15-Чер-2022 08:14

[Цитувати]

Вокальний квартет "Гетьман" - Колекція (3 альбоми) (2004-2010) [FLAC] | Pop / Folk Стиль: Pop Folk
Країна, місто: Україна, Київ
Сайти: Офіційний сайт
Видавець: UKRMusic
Виконавці:
Андрій Кондратюк
Петро Заєць
Геннадій Кас'яненко
Петро Максимович
Святослав Ільницький
Альбоми:

Будьмо разом (2004)

Вокальний квартет Гетьман - Будьмо разом (2004) [FLAC] | Pop Folk Стиль: Pop Folk
Країна, місто: Україна, Київ
Сайти: Офіційний сайт
Видавець: UKRMusic
Виконавці:
Андрій Кондратюк
Петро Заєць
Геннадій Кас'яненко
Петро Максимович
Святослав Ільницький
Пісні:
    01. Будьмо
    02. Щаслива сімейка
    03. Червона трута
    04. Їхав козак за Дунай
    05. Сусідка
    06. Маруся
    07. Притча
    08. Чардаш
    09. Світи, світи, місяченьку
    10. Край
    11. Танго кохання
    12. Кума
    13. Туга
    14. На коня
    15. Земля - народу сила
    16. Вітчизна
Тривалість: 00:51:25
Мова: українська
Аудіо-кодек: FLAC
Бітрейт: 768 кб/с
Джерело: Компакт-диск

Вишенька-черешенька (2007)

Вокальний квартет Гетьман - Вишенька-черешенька (2007) [FLAC] | Pop Folk Стиль: Pop Folk
Країна, місто: Україна, Київ
Сайти: Офіційний сайт
Видавець: UKRMusic
Виконавці:
Андрій Кондратюк
Петро Заєць
Геннадій Кас'яненко
Петро Максимович
Святослав Ільницький
Пісні:
    01. Вишенька-черешенька
    02. Моя рідня
    03. Медова нічка
    04. Козацька похідна
    05. Козацька слава
    06. Третя рота
    07. Нам є що захищати
    08. Наша Галя
    09. Танго кохання
    10. Усе на світі від любові
    11. Холостяки
    12. Кума
    13. За тих
    14. На коня
Тривалість: 00:48:38
Мова: українська
Аудіо-кодек: FLAC
Бітрейт: 768 кб/с
Джерело: Компакт-диск

Отаман (2010)

Вокальний квартет Гетьман - Отаман (2010) [FLAC] | Pop Folk Стиль: Pop Folk
Країна, місто: Україна, Київ
Сайти: Офіційний сайт
Видавець: UKRMusic
Виконавці:
Андрій Кондратюк
Петро Заєць
Геннадій Кас'яненко
Петро Максимович
Святослав Ільницький
Пісні:
    1. Отаман
    2. Вишенька-черешенька
    3. Наливай
    4. Любо, братцы, любо
    5. Ты ждешь Лизавета
    6. Моя рідня
    7. Червона рута
    8. Ой, до яру
    9. Хороша-прехороша
    10. Розпрягайте, хлопці коней
    11. Свято вечорами
    12. Ela na me teleioseis
    13. Бесаме мучо
    14. Смуглянка
    15. Заиграет за рекой гармошка
    16. Білявочка
    17. Розгулявся козак
    18. Степь Донская
    19. Казаки ехали
    20. Козачка
Тривалість: 01:07:56
Мова: українська (1-3, 6-11, 16,17, 20), російська (4,5, 14, 15, 18, 19) італійська (12, 13)
Аудіо-кодек: FLAC
Бітрейт: 768 кб/с
Джерело: Компакт-диск
Тривалість: 02:47:59
Мова: українська, російська, італійська
Аудіо-кодек: FLAC
Бітрейт: 768 кб/с
Джерело: Компакт-диск
Додаткова інформація:Чоловічий вокальний квартет «Гетьман» було створено 1991 р., в рік отримання Україною незалежності.
Творчий шлях колективу розпочався в Ансамблі Збройних Сил України. З 1996 р. квартет «Гетьман» виступає як окремий музичний колектив.
За значний внесок у розвиток української музичної культури учасникам квартету у 2002 році були присвоєні почесні звання народних артистів України.
Членів колективу нагороджено багатьма урядовими та державними нагородами. Президент Росії В. Путін подарував артистам квартету іменні швейцарські годинники та тульський баян (кнопковий аккордеон), зроблений на замовлення.
Квартет «Гетьман» — лауреат міжнародної премії ім.Г.Сковороди.
Квартет «Гетьман» відомий в Україні та за її межами: є бажаним гостем у концертних залах та майданчиках України, брав участь в урядових концертах, державних культурних акціях міжнародного значення таких як Дні Культури України у Росії, Білорусії, Казахстані, Узбекістані, Болгарії, Португалії (Експо-98), Австрії (новорічний Бал у Кайзеровському Палаці), Швеції (Королівський Фестиваль). Гастрольна мапа квартету не обмежена європейським континентом. З великим успіхом колектив неодноразово виступав із сольними концертами у США, Канаді, Франції, Німеччині, Австрії, Голандії, Швеції, Норвегії, Португалії, Росії, Білорусії.
В репертуарі є арії з опер, камерні класичні твори. Майстерне володіння неповторним тембром свого, з великим діапазоном, голосу дає можливість злиття голосів квартету в єдине самобутнє багатоголосе співзвуччя та прекрасне виконання сольних творів.
Квартет «Гетьман» поновлює свій репертуар, в якому українські народні пісні, пісні народів світу, твори вітчизняних та зарубіжних авторів. Численні шанувальники, глядачі та слухачі відвідують виступи та концерти квартету, про що свідчать рецензії в українській та закордонній пресі.
Якщо Ви справді бажаєте підтримати українське - після прослуховування, якщо музика вам сподобалась, придбайте ліцензійний диск. Підтримаймо вітчизняних виконавців!

Anonymous

Опублікувати 15-Чер-2022 08:14

[Цитувати]

VA - Українська двадцятка 6 (2012) [FLAC] | Pop Стиль: Pop Folk
Країна, місто: Україна, Київ
Видавець: Artur-Music
Пісні:
    01. Весна (Марія Яремчук)
    02. Серце (Ірина Федишин)
    03. Ендорфіни (Тік)
    04. Пробач (Лама)
    05. Серце (Zоряна)
    06. Я буду сонцем (Ната-лі)
    07. Відпусти (Бьянка)
    08. Мам (Скрябін)
    09. Ти хто така (Євген Дашин)
    10. А я, а я (Дзідзьо)
    11. Мажори (Вова зі Львова)
    12. За лісами, горами (Злата Огневич)
    13. Леді (Maximus)
    14. Мольфар (Майя)
    15. Леді Осінь (Вітер Знає)
    16. Поведи мене сни (Андрій Князь)
    17. Україна - вишиванка (Катя Бужиинська)
    18. Ангели земні (Андрій Заліско)
    19. Приречений на любов (Віктор Павлик)
    20. Візьми мене в полон (Олег Вінник)
Тривалість: 01:11:38
Мова: українська
Аудіо-кодек: FLAC
Бітрейт: 1100 кб/с
Джерело: файлообмінні сайти

Аудіочекер

Started at: середа, 31. 07. 2013. - 2:57.22
20 files found
01 -===- D:\VA - Українська двадцятка 6 (2012) [FLAC]\01. Âĺńíŕ.flac
Extracted successfully
Conclusion: this track is CDDA with probability 100%
Tempfile successfully deleted.
02 -===- D:\VA - Українська двадцятка 6 (2012) [FLAC]\02. Ńĺđöĺ.flac
Extracted successfully
Conclusion: this track is CDDA with probability 100%
Tempfile successfully deleted.
03 -===- D:\VA - Українська двадцятка 6 (2012) [FLAC]\03. Ĺíäîđôłíč.flac
Extracted successfully
Conclusion: this track is MPEG with probability 95%
Tempfile successfully deleted.
04 -===- D:\VA - Українська двадцятка 6 (2012) [FLAC]\04. Ďđîáŕ÷.flac
Extracted successfully
Conclusion: this track is MPEG with probability 95%
Tempfile successfully deleted.
05 -===- D:\VA - Українська двадцятка 6 (2012) [FLAC]\05. Ńĺđöĺ.flac
Extracted successfully
Conclusion: this track is MPEG with probability 95%
Tempfile successfully deleted.
06 -===- D:\VA - Українська двадцятка 6 (2012) [FLAC]\06. ß áóäó ńîíöĺě.flac
Extracted successfully
Conclusion: this track is CDDA with probability 99%
Tempfile successfully deleted.
07 -===- D:\VA - Українська двадцятка 6 (2012) [FLAC]\07. Âłäďóńňč.flac
Extracted successfully
Conclusion: this track is MPEG with probability 95%
Tempfile successfully deleted.
08 -===- D:\VA - Українська двадцятка 6 (2012) [FLAC]\08. Ěŕě.flac
Extracted successfully
Conclusion: this track is MPEG with probability 95%
Tempfile successfully deleted.
09 -===- D:\VA - Українська двадцятка 6 (2012) [FLAC]\09. Ňč őňî ňŕęŕ.flac
Extracted successfully
Conclusion: this track is MPEG with probability 95%
Tempfile successfully deleted.
10 -===- D:\VA - Українська двадцятка 6 (2012) [FLAC]\10. Ŕ ˙, ŕ ˙.flac
Extracted successfully
Conclusion: this track is MPEG with probability 95%
Tempfile successfully deleted.
11 -===- D:\VA - Українська двадцятка 6 (2012) [FLAC]\11. Ěŕćîđč.flac
Extracted successfully
Conclusion: this track is MPEG with probability 95%
Tempfile successfully deleted.
12 -===- D:\VA - Українська двадцятка 6 (2012) [FLAC]\12. Çŕ ëłńŕěč, ăîđŕěč.flac
Extracted successfully
Conclusion: this track is CDDA with probability 100%
Tempfile successfully deleted.
13 -===- D:\VA - Українська двадцятка 6 (2012) [FLAC]\13. Ëĺäł.flac
Extracted successfully
Conclusion: this track is CDDA with probability 100%
Tempfile successfully deleted.
14 -===- D:\VA - Українська двадцятка 6 (2012) [FLAC]\14. Ěîëüôŕđ.flac
Extracted successfully
Conclusion: this track is MPEG with probability 95%
Tempfile successfully deleted.
15 -===- D:\VA - Українська двадцятка 6 (2012) [FLAC]\15. Ëĺäł Îńłíü.flac
Extracted successfully
Conclusion: this track is MPEG with probability 95%
Tempfile successfully deleted.
16 -===- D:\VA - Українська двадцятка 6 (2012) [FLAC]\16. Ďîâĺäč ěĺíĺ ńíč.flac
Extracted successfully
Conclusion: this track is MPEG with probability 95%
Tempfile successfully deleted.
17 -===- D:\VA - Українська двадцятка 6 (2012) [FLAC]\17. Óęđŕżíŕ - âčřčâŕíęŕ.flac
Extracted successfully
Conclusion: this track is CDDA with probability 100%
Tempfile successfully deleted.
18 -===- D:\VA - Українська двадцятка 6 (2012) [FLAC]\18. Ŕíăĺëč çĺěíł.flac
Extracted successfully
Conclusion: this track is MPEG with probability 95%
Tempfile successfully deleted.
19 -===- D:\VA - Українська двадцятка 6 (2012) [FLAC]\19. Ďđčđĺ÷ĺíčé íŕ ëţáîâ.flac
Extracted successfully
Conclusion: this track is MPEG with probability 95%
Tempfile successfully deleted.
20 -===- D:\VA - Українська двадцятка 6 (2012) [FLAC]\20. Âłçüěč ěĺíĺ â ďîëîí.flac
Extracted successfully
Conclusion: this track is MPEG with probability 95%
Tempfile successfully deleted.
Finished at: середа, 31. 07. 2013. - 3:01.19 (operation time: 0:03.57)

Anonymous

Опублікувати 15-Чер-2022 08:14

[Цитувати]

Made in Ukraine - Кращі пісні (2019) [FLAC] | Pop Стиль: Pop
Країна, місто: Україна, Луганськ
Сайти: Офіційний сайт
Видавець: Гурт
Виконавці:
Тетяна Дегтярьова - солістка гурту
Тетяна Кривенко - бек-вокал
Стефанія Залевська - бек-вокал
Ольга Павелець - поет
Пісні:
    01. Смуглянка
    02. Катюша (Героям АТО)
    03. В саду гуляла
    04. А я чорнява
    05. Чом ти не прийшов
    06. Іванку, Іванку
    07. Плакуча гітара
    08. Кучерики
    09. Ой, чий то кінь стоїть
    10. Україна
    11. Розпрягайте, хлопці, коней
    12. Ой, на горі два дубки
    13. Очі сині
    14. Цвіте терен
    15. Несе Галя воду
    16. Чому розплетена коса
    17. Не йдіть дівчата
    18. Горіла сосна палала
    19. Била мене мати
    20. Ой, чорна я си чорна
    21. Смереко
    22. Три тополі
    23. Принцеса ніч
    24. Чорнобривці
    25. Зеленеє жито
Тривалість: 01:48:38
Мова: українська
Аудіо-кодек: FLAC
Бітрейт: 917 - 1109 кб/с
Джерело: Інтернет
Додаткова інформація:

Спектри

Якщо Ви справді бажаєте підтримати українське - після прослуховування, якщо музика вам сподобалась, придбайте ліцензійний диск. Підтримаймо вітчизняних виконавців!

Anonymous

Опублікувати 15-Чер-2022 08:14

[Цитувати]

VA - Цвіт надії. Пісні на вірші Вадима Крищенка (1995) [FLAC, TapeRip] | Pop Стиль: Pop
Країна, місто: Канада, Квебек, Біконсфілд
Сайти: немає
Видавець: Євшан
Пісні:
    01. Старе джерело (І. Бобул)
    02. Зоря (М. Свидюк)
    03. Світку мій високий (Л. Сандулеса)
    04. Слов'янська врода (І. Мацялко)
    05. Білі нарциси (С. Ротару)
    06. Отчий край (В. Шпортько)
    07. Берег любові (Л. Сандулеса, І. Бобул)
    08. Молитва (О. Білозір)
    09. Родина (Н. Яремчук)
    10. А було колись (І. Бобул)
    11. Нас приголубила весна (М. Свидюк)
    12. Цвіт надії (А. Кудлай)
    13. Запитаю (В. Білоножко)
    14. Налий, шинкарочко (Н. Яремчук)
    15. Україно-мати (Я. Євдокимів)
Тривалість: 00:58:31
Мова: українська
Аудіо-кодек: FLAC
Бітрейт: 828 - 986 кб/с
Джерело: ярий тверезенник
Додаткова інформація:Оцифровано Pioneer CT-335

Anonymous

Опублікувати 15-Чер-2022 08:14

[Цитувати]

Магія - Світло і тінь (1998) [FLAC, TapeRip] | Eurodance Стиль: Eurodance
Країна, місто: Україна
Сайти: Офіційний сайт
Видавець: NAC
Виконавці:
Наталія Дзеньків - вокал
Світлана Римар - вокал (1,2,4-6)
Олена Демчук - вокал (3,7,8)
Пісні:
    01. Зорi
    02. Напиши менi, доле, листа
    03. Свiтло i тiнь
    04. Бiлi вогнi
    05. У небi
    06. Останнi каменi стiни
    07. Моє сердце розбите
    08. Свiтло i тiнь (ремiкс)
Тривалість: 00:40:58
Мова: українська
Аудіо-кодек: FLAC
Бітрейт: 920-1062 кб/с
Джерело: Privat, ярий тверезенник
Додаткова інформація:Pioneer CT-335Якщо Ви справді бажаєте підтримати українське - після прослуховування, якщо музика вам сподобалась,
придбайте ліцензійний диск.
Підтримаймо вітчизняних виконавців!

Anonymous

Опублікувати 15-Чер-2022 08:14

[Цитувати]

Степ - Ти не пожалкуєш (1997) [FLAC, TapeRip] | Pop/Dance Стиль: Pop, Dance
Країна, місто: Україна, Херсон
Сайти: Офсайт
Видавець: "АУДИОЦЕНТР - ЮГ", "NAC"
Виконавці:
Сергій Василенко - иузика, аранжування, тексти, вокал
Володимир Єфімов - аранжування, тексти, вокал
Андрій П'ятаков - звукорежисер
Також у запису альбому брали участь музиканти з м.Львова:
М.Єфрємов - гітара , А Стєпанов - духові(мідь)
Пісні:
    01. Шалалулей
    02. Жнива
    03. Ти не пожалкуєш
    04. Жінка моя
    05. О Ріо Ріо
    06. Зелена доля
    07. I Love You
    08. Дівчина танцюй
    09. Шаман
    10. Не торбуйтесь мамо
    11. Що посієш, те й пожнеш
    12. Медляк
    13. Не шукай мене
Тривалість: 00:54:59
Мова: українська
Аудіо-кодек: FLAC
Бітрейт: 936 кб/с
Джерело: власний ріп з касети
Додаткова інформація:

зворотній бік обкладинки+Log auCDtect


-----------------------
DON'T MODIFY THIS FILE
-----------------------
PERFORMER: auCDtect Task Manager, ver. 1.5.1RC3 build 1.5.1.4
Copyright (c) 2008-2010 y-soft. All rights reserved
http:https://y-soft.org
ANALYZER: auCDtect: CD records authenticity detector, version 0.8.2
Copyright (c) 2004 Oleg Berngardt. All rights reserved.
Copyright (c) 2004 Alexander Djourik. All rights reserved.
FILE: Степ - Ти не пожалкуєш.flac
  Size: 386012008 Hash: 93C9CF756E6CB9304CC62537ECF1F786 Accuracy: -m0
  Conclusion: CDDA 100%
  Signature: 9F939A79DD5C17E2857A488AD57C1AEB37C09741

Anonymous

Опублікувати 15-Чер-2022 08:14

[Цитувати]

Фантом-2 - Без контролю (1997) [FLAC] | Eurodance Стиль: Techno-pop, Теchnо-dance, Eurodance
Країна, місто: Україна, Івано-Франківськ
Видавець: NAC
Виконавці:
Роман Матіяш, Ольга Гречко
Пісні:
    01. Іntro
    02. Без контролю
    03. Двоє
    04. Капітошка
    05. Подивись
    06. Я досягну
    07. Вітер
    08. Зоряні вітрила
    09. Майже реально
    10. Там ти знайдеш удачу
    11. Хто ти людино?
    12. Там, де птахи
    13. Зоряні вітрила (instrumental)
    14. Quatro

log

Exact Audio Copy V0.99 prebeta 5 from 4. May 2009
EAC extraction logfile from 1. September 2010, 22:34
Фантом-2 / Без Контролю
Used drive : Optiarc DVD RW AD-7170S Adapter: 2 ID: 2
Read mode : Secure
Utilize accurate stream : Yes
Defeat audio cache : Yes
Make use of C2 pointers : No
Read offset correction : 48
Overread into Lead-In and Lead-Out : No
Fill up missing offset samples with silence : Yes
Delete leading and trailing silent blocks : No
Null samples used in CRC calculations : Yes
Used interface : Installed external ASPI interface
Used output format : Internal WAV Routines
Sample format : 44.100 Hz; 16 Bit; Stereo
TOC of the extracted CD
Track | Start | Length | Start sector | End sector
---------------------------------------------------------
1 | 0:00.00 | 3:44.72 | 0 | 16871
2 | 3:44.72 | 5:44.10 | 16872 | 42681
3 | 9:29.07 | 5:02.53 | 42682 | 65384
4 | 14:31.60 | 4:14.20 | 65385 | 84454
5 | 18:46.05 | 4:56.47 | 84455 | 106701
6 | 23:42.52 | 7:10.00 | 106702 | 138951
7 | 30:52.52 | 4:08.45 | 138952 | 157596
8 | 35:01.22 | 6:18.05 | 157597 | 185951
9 | 41:19.27 | 4:32.35 | 185952 | 206386
10 | 45:51.62 | 5:10.40 | 206387 | 229676
11 | 51:02.27 | 4:02.25 | 229677 | 247851
12 | 55:04.52 | 5:21.55 | 247852 | 271981
13 | 60:26.32 | 6:15.23 | 271982 | 300129
14 | 66:41.55 | 3:33.02 | 300130 | 316106
Range status and errors
Selected range
Filename K:\torrents UPLOAD\UKR\Фантом-2 - 1997 - Без Контролю\Фантом-2 - 1997 - Без Контролю.wav
Peak level 98.8 %
Range quality 100.0 %
Test CRC 579C65AE
Copy CRC 579C65AE
Copy OK
No errors occurred
AccurateRip summary
Track 1 not present in database
Track 2 not present in database
Track 3 not present in database
Track 4 not present in database
Track 5 not present in database
Track 6 not present in database
Track 7 not present in database
Track 8 not present in database
Track 9 not present in database
Track 10 not present in database
Track 11 not present in database
Track 12 not present in database
Track 13 not present in database
Track 14 not present in database
None of the tracks are present in the AccurateRip database
End of status report

fooCDtect

fooCDtect - foobar2000 + auCDtect, baralgin.
auCDtect: CD records authenticity detector, version 0.8.2
Copyright (c) 2004 Oleg Berngardt. All rights reserved.
Copyright (c) 2004 Alexander Djourik. All rights reserved.
mode: 0
===========================================
Track: 01 - Intro
Quality: CDDA 99%
===========================================
Track: 02 - Без контролю
Quality: CDDA 100%
===========================================
Track: 03 - Двоє
Quality: CDDA 100%
===========================================
Track: 04 - Капітошка (mix)
Quality: CDDA 100%
===========================================
Track: 05 - Подивись
Quality: CDDA 100%
===========================================
Track: 06 - Я досягну
Quality: CDDA 100%
===========================================
Track: 07 - Вітер
Quality: MPEG 95%
===========================================
Track: 08 - Зоряні вітрила
Quality: CDDA 99%
===========================================
Track: 09 - Майже реально
Quality: CDDA 100%
===========================================
Track: 10 - Там ти знайдеш удачу
Quality: CDDA 94%
===========================================
Track: 11 - Хто ти людино
Quality: CDDA 94%
===========================================
Track: 12 - Там, де птахи
Quality: CDDA 100%
===========================================
Track: 13 - Зоряні вітрила (інструментал)
Quality: CDDA 99%
===========================================
Track: 14 - Quatro
Quality: CDDA 100%
===========================================
Тривалість: 01:10:15
Мова: українська, відсутня (1,13.14)
Аудіо-кодек: FLAC
Бітрейт: 985 кб/с
Джерело: рутрекер (перепакував у флак, виправив теги)
Додаткова інформація:Гурт Фантом-2 був дуже популярним в кінці дев'яностих. Вони запам'яталися не лише гарною музикою, але і зовнішнім виглядом - кремезний юнак і тендітна білявка в червоному. Фантом-2 були одними із кращих!Якщо Ви справді бажаєте підтримати українське - після прослуховування, якщо музика вам сподобалась,
придбайте ліцензійний диск.
Підтримаймо вітчизняних виконавців!

Anonymous

Опублікувати 15-Чер-2022 08:14

[Цитувати]

VA - Хіт-парад студії Лева [Випуск 1] (1997) [FLAC, TapeRip] | Pop Стиль: Pop
Країна, місто: Україна
Видавець: Студія Лева
Виконавці:
VA
Пісні:
    01. Ти (Руслана)
    02. О, життя! (Юрій Цвєтков)
    03. Ангел-хоронитель (Ірина Доля)
    04. Не сумуй так, скрипко (Світозари)
    05. Юний дощ (Таміла)
    06. Шаман (Степ)
    07. Вовченя (Наталя Пилипюк)
    08. Золото кохання (Вілен)
    09. Серпневий роман (Оксана Пекун)
    10. Я звик (Конгрес)
    11. Твій голос (Інеса Пусловалова)
Тривалість: 00:46:23
Мова: українська
Аудіо-кодек: FLAC
Бітрейт: ~900 кб/с
Джерело: ярий тверезенник, Ігор Качмарик (Дрогобич)
Додаткова інформація:Pioneer CT-335Якщо Ви справді бажаєте підтримати українське - після прослуховування, якщо музика вам сподобалась,
придбайте ліцензійний диск.
Підтримаймо вітчизняних виконавців!

Anonymous

Опублікувати 15-Чер-2022 08:14

[Цитувати]

VA - Кращі новинки української естради (2015) [FLAC] | Pop Стиль: Pop
Країна, місто: Україна
Видавець: Ferum-Music
Пісні:
    [04:16] 01. TIK - Mein Liebe
    [03:19] 02. Гайдамаки feat.Cai Caslavinieri - Співай соловей
    [04:05] 03. Alyosha & Влад Дарвин - Троянди
    [02:33] 04. Dzidzio - Я їду до мами
    [03:12] 05. Марина Захарченко - Відпусти
    [02:57] 06. Інше небо - Здивуй мене
    [03:33] 07. Ірина Федишин - Чорні очка
    [02:45] 08. Цвіт кульбаби - Королєва
    [03:42] 09. Антитіла - Все красиво
    [03:32] 10. Киевэлектро - Весняне весілля
    [03:05] 11. TIK - Сірожа з Ружина
    [03:27] 12. Наталка Карпа - Літо-літо
    [03:56] 13. Марія Яремчук - До тебе
    [03:16] 14. Oleynik - Засинай
    [03:23] 15. Катя Брайт - Індіго нової весни
    [03:56] 16. Мері - Падала зоря
    [03:50] 17. Ірина Зінковська - Льон-льонок
    [03:22] 18. Олександр Кварта - Боже, як гарно
    [03:55] 19. Нумер 482 - Важлива
    [03:48] 20. Marija Cheba - Дівчина
    [03:23] 21. The ВЙО - Кіровоград
    [04:28] 22. Океан Ельзи - Не твоя війна
Тривалість: 01:17:30
Мова: українська
Аудіо-кодек: FLAC
Бітрейт: 914 кб/с
Джерело: інший трекер
Додаткова інформація:

Лог

Exact Audio Copy V1.0 beta 3 from 29. August 2011
Отчёт EAC об извлечении, выполненном 26. сентября 2015, 12:17
Various Artists / Кращі новонки української естради
Дисковод: TSSTcorpCDDVDW TS-L633J Adapter: 0 ID: 1
Режим чтения : Достоверность
Использование точного потока : Да
Отключение кэша аудио : Да
Использование указателей C2 : Нет
Коррекция смещения при чтении : 6
Способность читать области Lead-in и Lead-out : Нет
Заполнение пропущенных сэмплов тишиной : Да
Удаление блоков с тишиной в начале и конце : Нет
При вычислениях CRC использовались нулевые сэмплы : Да
Интерфейс : Встроенный Win32-интерфейс для Win NT/2000
Выходной формат : Пользовательский кодировщик
Выбранный битрейт : 1024 kBit/s
Качество : Высокий
Добавление ID3-тега : Нет
Утилита сжатия : C:\Program Files (x86)\Exact Audio Copy\FLAC\FLAC.EXE
Дополнительные параметры : -8 -V -T "ARTIST=%artist%" -T "TITLE=%title%" -T "ALBUM=%albumtitle%" -T "DATE=%year%" -T "TRACKNUMBER=%tracknr%" -T "GENRE=%genre%" -T "COMMENT=%comment%" -T "BAND=%albuminterpret%" -T "ALBUMARTIST=%albuminterpret%" -T "COMPOSER=%composer%" %haslyrics%--tag-from-file=LYRICS="%lyricsfile%"%haslyrics% -T "DISCNUMBER=%cdnumber%" -T "TOTALDISCS=%totalcds%" -T "TOTALTRACKS=%numtracks%" %hascover%--picture="%coverfile%"%hascover% %source% -o %dest%
TOC извлечённого CD
Трек | Старт | Длительность | Начальный сектор | Конечный сектор
---------------------------------------------------------------------
1 | 0:00.00 | 4:15.56 | 0 | 19180
2 | 4:15.56 | 3:18.13 | 19181 | 34043
3 | 7:33.69 | 4:04.05 | 34044 | 52348
4 | 11:37.74 | 2:32.01 | 52349 | 63749
5 | 14:10.00 | 3:11.19 | 63750 | 78093
6 | 17:21.19 | 2:56.66 | 78094 | 91359
7 | 20:18.10 | 3:32.74 | 91360 | 107333
8 | 23:51.09 | 2:44.06 | 107334 | 119639
9 | 26:35.15 | 3:41.52 | 119640 | 136266
10 | 30:16.67 | 3:31.16 | 136267 | 152107
11 | 33:48.08 | 3:04.42 | 152108 | 165949
12 | 36:52.50 | 3:26.03 | 165950 | 181402
13 | 40:18.53 | 3:55.22 | 181403 | 199049
14 | 44:14.00 | 3:16.00 | 199050 | 213749
15 | 47:30.00 | 3:22.23 | 213750 | 228922
16 | 50:52.23 | 3:55.08 | 228923 | 246555
17 | 54:47.31 | 3:49.14 | 246556 | 263744
18 | 58:36.45 | 3:21.09 | 263745 | 278828
19 | 61:57.54 | 3:54.11 | 278829 | 296389
20 | 65:51.65 | 3:47.19 | 296390 | 313433
21 | 69:39.09 | 3:22.26 | 313434 | 328609
22 | 73:01.35 | 4:27.52 | 328610 | 348686
Характеристики диапазона извлечения и сообщения об ошибках
Выбранный диапазон
Имя файла D:\Download\VA - Кращі новонки української естради-2015[FLAC]\Various Artists - Кращі новонки української естради.wav
Пиковый уровень 91.2 %
Скорость извлечения 3.4 X
Качество диапазона 100.0 %
CRC теста 3D9C6005
CRC копии 3D9C6005
Копирование... OK
Ошибок не произошло
AccurateRip: сводка
Трек 1 отсутствует в базе данных
Трек 2 отсутствует в базе данных
Трек 3 отсутствует в базе данных
Трек 4 отсутствует в базе данных
Трек 5 отсутствует в базе данных
Трек 6 отсутствует в базе данных
Трек 7 отсутствует в базе данных
Трек 8 отсутствует в базе данных
Трек 9 отсутствует в базе данных
Трек 10 отсутствует в базе данных
Трек 11 отсутствует в базе данных
Трек 12 отсутствует в базе данных
Трек 13 отсутствует в базе данных
Трек 14 отсутствует в базе данных
Трек 15 отсутствует в базе данных
Трек 16 отсутствует в базе данных
Трек 17 отсутствует в базе данных
Трек 18 отсутствует в базе данных
Трек 19 отсутствует в базе данных
Трек 20 отсутствует в базе данных
Трек 21 отсутствует в базе данных
Трек 22 отсутствует в базе данных
Ни одного трека нет в базе AccurateRip
Конец отчёта
==== Контрольная сумма отчёта 140AB39EC31BC91A492A41FF2CE56FB7B3E5743EA75958B0DBBD2F5B4BA19E33 ====

(.CUE)

REM GENRE рор
REM DATE 2015
REM DISCID 3B122916
REM COMMENT "ExactAudioCopy v1.0b3"
PERFORMER "Various Artists"
TITLE "Кращі новонки української естради"
FILE "Various Artists - Кращі новонки української естради.flac" WAVE
TRACK 01 AUDIO
TITLE "Mein Liebe"
PERFORMER "TIK"
INDEX 01 00:00:00
TRACK 02 AUDIO
TITLE "Співай соловей"
PERFORMER "Гайдамаки feat.Cai Caslavinieri"
INDEX 00 04:13:56
INDEX 01 04:15:56
TRACK 03 AUDIO
TITLE "Троянди"
PERFORMER "Alyosha & Влад Дарвин"
INDEX 00 07:31:69
INDEX 01 07:33:69
TRACK 04 AUDIO
TITLE "Я їду до мами"
PERFORMER "Dzidzio"
INDEX 00 11:35:74
INDEX 01 11:37:74
TRACK 05 AUDIO
TITLE "Відпусти"
PERFORMER "Марина Захарченко"
INDEX 00 14:08:00
INDEX 01 14:10:00
TRACK 06 AUDIO
TITLE "Здивуй мене"
PERFORMER "Інше небо"
INDEX 00 17:19:19
INDEX 01 17:21:19
TRACK 07 AUDIO
TITLE "Чорні очка"
PERFORMER "Ірина Федишин"
INDEX 00 20:16:10
INDEX 01 20:18:10
TRACK 08 AUDIO
TITLE "Королєва"
PERFORMER "Цвіт кульбаби"
INDEX 00 23:49:09
INDEX 01 23:51:09
TRACK 09 AUDIO
TITLE "Все красиво"
PERFORMER "Антитіла"
INDEX 00 26:33:15
INDEX 01 26:35:15
TRACK 10 AUDIO
TITLE "Весняне весілля"
PERFORMER "Киевэлектро"
INDEX 00 30:14:67
INDEX 01 30:16:67
TRACK 11 AUDIO
TITLE "Сірожа з Ружина"
PERFORMER "TIK"
INDEX 00 33:46:08
INDEX 01 33:48:08
TRACK 12 AUDIO
TITLE "Літо-літо"
PERFORMER "Наталка Карпа"
INDEX 00 36:50:50
INDEX 01 36:52:50
TRACK 13 AUDIO
TITLE "До тебе"
PERFORMER "Марія Яремчук"
INDEX 00 40:16:53
INDEX 01 40:18:53
TRACK 14 AUDIO
TITLE "Засинай"
PERFORMER "Oleynik"
INDEX 00 44:12:00
INDEX 01 44:14:00
TRACK 15 AUDIO
TITLE "Індіго нової весни"
PERFORMER "Катя Брайт"
INDEX 00 47:28:00
INDEX 01 47:30:00
TRACK 16 AUDIO
TITLE "Падала зоря"
PERFORMER "Мері"
INDEX 00 50:50:23
INDEX 01 50:52:23
TRACK 17 AUDIO
TITLE "Льон-льонок"
PERFORMER "Ірина Зінковська"
INDEX 00 54:45:31
INDEX 01 54:47:31
TRACK 18 AUDIO
TITLE "Боже, як гарно"
PERFORMER "Олександр Кварта"
INDEX 00 58:34:45
INDEX 01 58:36:45
TRACK 19 AUDIO
TITLE "Важлива"
PERFORMER "Нумер 482"
INDEX 00 61:55:54
INDEX 01 61:57:54
TRACK 20 AUDIO
TITLE "Дівчина"
PERFORMER "Marija Cheba"
INDEX 00 65:49:65
INDEX 01 65:51:65
TRACK 21 AUDIO
TITLE "Кіровоград"
PERFORMER "The ВЙО"
INDEX 00 69:37:09
INDEX 01 69:39:09
TRACK 22 AUDIO
TITLE "Не твоя війна"
PERFORMER "Океан Ельзи"
INDEX 00 72:59:35
INDEX 01 73:01:35
Якщо Ви справді бажаєте підтримати українське - після прослуховування, якщо музика вам сподобалась, придбайте ліцензійний диск. Підтримаймо вітчизняних виконавців!

Anonymous

Опублікувати 15-Чер-2022 08:14

[Цитувати]

ВІА "Кобза" - Ішов кобзар... (2001) [FLAC] | Pop Folk Стиль: Pop Folk
Країна, місто: Україна, Київ
Сайти: Офіційний сайт
Видавець: Атлантік
Пісні:
    1. Щедрiвка (обр.”Кобза”)
    2. Iшов кобзар чистим полем (обр.О.Ледньова)
    3. Ой, гаю, гаю (обр.Є.Коваленка)
    4. Ой, ходила дiвчина бережком (обр.Є.Коваленка)
    5. Iшов козак потайком (обр.О.Ледньова)
    6. У суботу молотив я (обр.О.Ледньова)
    7. Люби мене (О.Бiлаш-М.Ткач)
    8. Дума (П.Майборода-А.Малишко)
    9. Впали двi зiрницi (I.Шамо-В.Куринський)
    10. Не сходило вранцi сонечко (В.Криштофович-сл.нар.)
    11. Зачекай (В.Криштофович-сл.нар.)
    12. Спомин (І.Лученок-Я.Купала)
    13. Сини (О.Білаш-Й.Струцюк)

fooCDtect

fooCDtect - foobar2000 + auCDtect, baralgin.
auCDtect: CD records authenticity detector, version 0.8.2
Copyright (c) 2004 Oleg Berngardt. All rights reserved.
Copyright (c) 2004 Alexander Djourik. All rights reserved.
mode: 0
===========================================
Track: 01 - Щедрiвка
Quality: CDDA 100%
===========================================
Track: 02 - Iшов кобзар чистим полем
Quality: CDDA 100%
===========================================
Track: 03 - Ой, гаю, гаю
Quality: CDDA 87%
===========================================
Track: 04 - Ой, ходила дiвчина бережком
Quality: CDDA 100%
===========================================
Track: 05 - Iшов козак потайком
Quality: CDDA 100%
===========================================
Track: 06 - У суботу молотив я
Quality: CDDA 100%
===========================================
Track: 07 - Люби мене
Quality: CDDA 100%
===========================================
Track: 08 - Дума
Quality: CDDA 100%
===========================================
Track: 09 - Впали двi зiрницi
Quality: CDDA 100%
===========================================
Track: 10 - Не сходило вранцi сонечко
Quality: MPEG 90%
===========================================
Track: 11 - Зачекай
Quality: CDDA 100%
===========================================
Track: 12 - Спомин
Quality: CDDA 49%
===========================================
Track: 13 - Сини
Quality: CDDA 100%
===========================================
Тривалість: 00:47:57
Мова: українська
Аудіо-кодек: FLAC
Бітрейт: 521-825 кб/с
Джерело: файли надав gorislavetsЯкщо Ви справді бажаєте підтримати українське - після прослуховування, якщо музика вам сподобалась,
придбайте ліцензійний диск.
Підтримаймо вітчизняних виконавців!

Anonymous

Опублікувати 15-Чер-2022 08:14

[Цитувати]

Maxima - Ми взірвемо світ любов'ю (2008) [FLAC] | Pop / Rock Стиль: Pop, Rock
Країна: Україна
Сайти: Офіційний сайт
Видавець: АСТРА РЕКОРДС
Виконавці:
Юлія Донченко - вокал, бек-вокал; Андрій Партика - програмування, гітара (2,3,4,7,8,11), акустична гітара (3,6,7,11,12); Віталій Телезин програмування, синтезатори, Rhodes (1), рояль (9), бас-гітара (11); Олег Яшник - додаткове програмування, гітара (1,2,6,7,8,9,12), акустична гітара (1,2,4,9); Дмитро Шуров - Rhodes (4,6); Макс Малишев - барабани (1,4,6,7,8,12); Олег Лохманюк бас-гітара (1,4,6,7,8,12); Олександр Береговський - перкусія (4); Жека Кобзарук - програмування, синтезатори (5); Андрій Алексєєв - гітара (5), Євген Major Філатов - скретчі (1); Петро Чернявський - гітара, акустична гітара (7); Київський Філармонійний Оркестр (2, 7, 10)
Пісні:
    1. Живі та здорові
    2. Ми взірвемо світ
    3. Зима, весна, літо, осінь
    4. У раю
    5. Сильніше звук
    6. Чотири стіни
    7. Золота й небесна жінка
    8. Дві душі
    9. Поцілуй мене ніжно
    10. Колискова
    11. Мій дім – моя фортеця
    12. Новорічна
Тривалість: 00:46:10
Мова: українська
Аудіо-кодек: FLAC
Бітрейт: 993 кб/с
Джерело: власний CD
Додаткова інформація:
Підспіви (та підтанцьовки ) в Гадів в їхньому the best, як на мене, "Було не любити" - втеча з гітаристом Гадів Андрієм Партикою в Гавайські Гітари (в когось є лосслесс? ) та свіжа реінкарнація в Maximi - це (поки-що) творчий шлях симатичної співачки, музИки, автора і "просто жінки" Юлі Донченко.

"EAC повідомив"

Exact Audio Copy V0.99 prebeta 5 from 4. May 2009
EAC extraction logfile from 11. March 2010, 23:04
Maxima / Ми взірвемо світ любов'ю
Used drive : HL-DT-STDVDRAM GSA-T50L Adapter: 1 ID: 0
Read mode : Secure
Utilize accurate stream : Yes
Defeat audio cache : Yes
Make use of C2 pointers : No
Read offset correction : 667
Overread into Lead-In and Lead-Out : No
Fill up missing offset samples with silence : Yes
Delete leading and trailing silent blocks : No
Null samples used in CRC calculations : Yes
Used interface : Native Win32 interface for Win NT & 2000
Used output format : User Defined Encoder
Selected bitrate : 768 kBit/s
Quality : High
TOC of the extracted CD
Track | Start | Length | Start sector | End sector
---------------------------------------------------------
1 | 0:00.00 | 3:27.16 | 0 | 15540
2 | 3:27.16 | 3:39.21 | 15541 | 31986
3 | 7:06.37 | 3:00.19 | 31987 | 45505
4 | 10:06.56 | 3:53.70 | 45506 | 63050
5 | 14:00.51 | 3:58.28 | 63051 | 80928
6 | 17:59.04 | 4:39.00 | 80929 | 101853
7 | 22:38.04 | 3:43.49 | 101854 | 118627
8 | 26:21.53 | 3:48.30 | 118628 | 135757
9 | 30:10.08 | 4:09.39 | 135758 | 154471
10 | 34:19.47 | 2:57.49 | 154472 | 167795
11 | 37:17.21 | 3:21.21 | 167796 | 182891
12 | 40:38.42 | 2:36.06 | 182892 | 194597
Range status and errors
Selected range
Filename C:\Users\Tato\Downloads\Maxima - Ми взірвемо світ любов'ю\Maxima - Ми взірвемо світ любов'ю.wav
Peak level 100.0 %
Range quality 100.0 %
Copy CRC 15BA7664
Copy OK
No errors occurred
End of status report
реліз в МР3 Maxima - Ми взірвемо світ любов'ю (2008) [MP3] | Pop / RockЯкщо Ви справді бажаєте підтримати українське - після прослуховування, якщо музика вам сподобалась, придбайте ліцензійний диск. Підтримаймо вітчизняних виконавців!

Anonymous

Опублікувати 15-Чер-2022 08:14

[Цитувати]

Левко Дурко - Супер-хіт (1996) [FLAC] | Pop Стиль: Pop
Країна, місто: Україна, Стрий
Сайти: Офіційний сайт
Видавець: NAC
Виконавці:
Заслужений артист України Леонтій Володимирович Бебешко
Пісні:
    01. Булочка (4:07)
    02. Згуба (3:06)
    03. Инспектор Хома (3:12)
    04. Мало (4:53)
    05. Було (4:31)
    06. Переполох (3:38)
    07. Про Коника (5:05)
    08. Любов Моя (3:40)
    09. Карате (3:16)
    10. Мила Моя, Мила (3:09)
    11. Пролетарська Лірична (4:06)

log

Exact Audio Copy V1.0 beta 1 from 15. November 2010
EAC extraction logfile from 5. June 2012, 19:20
Левко-Дурко / Супер-Хіт
Used drive : Optiarc DVD RW AD-7200A Adapter: 0 ID: 0
Read mode : Secure
Utilize accurate stream : Yes
Defeat audio cache : Yes
Make use of C2 pointers : No
Read offset correction : 48
Overread into Lead-In and Lead-Out : No
Fill up missing offset samples with silence : Yes
Delete leading and trailing silent blocks : No
Null samples used in CRC calculations : Yes
Used interface : Native Win32 interface for Win NT & 2000
Gap handling : Appended to previous track
Used output format : User Defined Encoder
Selected bitrate : 768 kBit/s
Quality : High
Add ID3 tag : No
Command line compressor : C:\Program Files\Exact Audio Copy\Flac\flac.exe
Additional command line options : -8 -V -T "ARTIST=%a" -T "TITLE=%t" -T "ALBUM=%g" -T "DATE=%y" -T "TRACKNUMBER=%n" -T "TOTALTRACKS=%x" -T "GENRE=%m" -T "ALBUMARTIST=%v" -T "ALBUM ARTIST=%v" -T "COMMENT=EAC Secure Mode, Test & Copy, AccurateRip, FLAC -8" %s
TOC of the extracted CD
Track | Start | Length | Start sector | End sector
---------------------------------------------------------
1 | 0:00.30 | 4:07.25 | 30 | 18579
2 | 4:07.55 | 3:06.12 | 18580 | 32541
3 | 7:13.67 | 3:11.55 | 32542 | 46921
4 | 10:25.47 | 4:52.43 | 46922 | 68864
5 | 15:18.15 | 4:31.35 | 68865 | 89224
6 | 19:49.50 | 3:37.42 | 89225 | 105541
7 | 23:27.17 | 5:05.05 | 105542 | 128421
8 | 28:32.22 | 3:40.03 | 128422 | 144924
9 | 32:12.25 | 3:15.72 | 144925 | 159621
10 | 35:28.22 | 3:08.55 | 159622 | 173776
11 | 38:37.02 | 4:05.55 | 173777 | 192206
Track 1
Filename E:\Левко-Дурко - Супер-Хіт (1996) [FLAC] {NAC, NAC 040204, Росія, 1996}\01 - Булочка.wav
Pre-gap length 0:00:02.40
Peak level 82.1 %
Extraction speed 2.3 X
Track quality 100.0 %
Test CRC 0B15F75D
Copy CRC 0B15F75D
Track not present in AccurateRip database
Copy OK
Track 2
Filename E:\Левко-Дурко - Супер-Хіт (1996) [FLAC] {NAC, NAC 040204, Росія, 1996}\02 - Згуба.wav
Pre-gap length 0:00:00.06
Peak level 91.7 %
Extraction speed 2.4 X
Track quality 100.0 %
Test CRC 4E2C331A
Copy CRC 4E2C331A
Track not present in AccurateRip database
Copy OK
Track 3
Filename E:\Левко-Дурко - Супер-Хіт (1996) [FLAC] {NAC, NAC 040204, Росія, 1996}\03 - Инспектор Хома.wav
Pre-gap length 0:00:00.02
Peak level 86.7 %
Extraction speed 2.6 X
Track quality 100.0 %
Test CRC 836A3586
Copy CRC 836A3586
Track not present in AccurateRip database
Copy OK
Track 4
Filename E:\Левко-Дурко - Супер-Хіт (1996) [FLAC] {NAC, NAC 040204, Росія, 1996}\04 - Мало.wav
Pre-gap length 0:00:00.02
Peak level 82.0 %
Extraction speed 2.7 X
Track quality 99.9 %
Test CRC 5E42871F
Copy CRC 5E42871F
Track not present in AccurateRip database
Copy OK
Track 5
Filename E:\Левко-Дурко - Супер-Хіт (1996) [FLAC] {NAC, NAC 040204, Росія, 1996}\05 - Було.wav
Pre-gap length 0:00:00.04
Peak level 97.9 %
Extraction speed 3.3 X
Track quality 100.0 %
Test CRC E27EDBFC
Copy CRC E27EDBFC
Track not present in AccurateRip database
Copy OK
Track 6
Filename E:\Левко-Дурко - Супер-Хіт (1996) [FLAC] {NAC, NAC 040204, Росія, 1996}\06 - Переполох.wav
Pre-gap length 0:00:00.04
Peak level 79.7 %
Extraction speed 3.4 X
Track quality 100.0 %
Test CRC 6789B25C
Copy CRC 6789B25C
Track not present in AccurateRip database
Copy OK
Track 7
Filename E:\Левко-Дурко - Супер-Хіт (1996) [FLAC] {NAC, NAC 040204, Росія, 1996}\07 - Про Коника.wav
Pre-gap length 0:00:00.02
Peak level 87.9 %
Extraction speed 3.7 X
Track quality 100.0 %
Test CRC 630FF4F0
Copy CRC 630FF4F0
Track not present in AccurateRip database
Copy OK
Track 8
Filename E:\Левко-Дурко - Супер-Хіт (1996) [FLAC] {NAC, NAC 040204, Росія, 1996}\08 - Любов Моя.wav
Pre-gap length 0:00:00.02
Peak level 93.2 %
Extraction speed 3.7 X
Track quality 100.0 %
Test CRC 7C09034D
Copy CRC 7C09034D
Track not present in AccurateRip database
Copy OK
Track 9
Filename E:\Левко-Дурко - Супер-Хіт (1996) [FLAC] {NAC, NAC 040204, Росія, 1996}\09 - Карате.wav
Pre-gap length 0:00:00.04
Peak level 90.7 %
Extraction speed 3.8 X
Track quality 100.0 %
Test CRC CB50A83C
Copy CRC CB50A83C
Track not present in AccurateRip database
Copy OK
Track 10
Filename E:\Левко-Дурко - Супер-Хіт (1996) [FLAC] {NAC, NAC 040204, Росія, 1996}\10 - Мила Моя, Мила.wav
Pre-gap length 0:00:00.02
Peak level 84.4 %
Extraction speed 3.9 X
Track quality 100.0 %
Test CRC B6B0C26D
Copy CRC B6B0C26D
Track not present in AccurateRip database
Copy OK
Track 11
Filename E:\Левко-Дурко - Супер-Хіт (1996) [FLAC] {NAC, NAC 040204, Росія, 1996}\11 - Пролетарська Лірична.wav
Pre-gap length 0:00:00.02
Peak level 82.7 %
Extraction speed 3.7 X
Track quality 99.9 %
Test CRC 9CE0CE75
Copy CRC 9CE0CE75
Track not present in AccurateRip database
Copy OK
None of the tracks are present in the AccurateRip database
No errors occurred
End of status report
==== Log checksum C2B24B6996B587F892BEAE52C294EC3CAD734EFB55ED45C61B42C3341B752E00 ====
Тривалість: 00:42:42
Мова: українська
Аудіо-кодек: FLAC
Бітрейт: 864-988 кб/с
Джерело: рутрекер
Додаткова інформація:Леонтій Бебешко (17.06.49) на професійну естраду взагалі-то не збирався - недовчився в інституті фізкультури, закінчив сільськогосподарський технікум, приколювався на «Юрай Хіп» і, граючи на весіллях, опановував основи ринкових відносин. В 1989 році за допомогою свого брата Володимира Бебешка, професійного звукорежисера і аранжувальника, записав першу свою пісню «Їду в Югославію» (Левкові тоді стукнуло 40 і він вдавав з себе музиканта з гурту зовиці Віки). А далі пішло-поїхало - перший альбом, другий, третій... (всі на «Студії Лева»). В Канаді вийшла дитяча платівка «Веселі пригоди Левка Дурка». і досі Левкові виступи сприймаються неоднозначно - від повного захвату до абсолютного несприйняття, і не важливо чи з-за текстів пісень з’явилося сценічне ім’я Дурко, а чи навпаки. Втім пісні Левка Дурка заспівали вже й інші виконавці - Віктор Морозов, Ірчик зі Львова, Віталій Сачок. В кінці 1996 року лейбл НАК випустив CD-збірник Левка Дурка «Супер хіти», а за рік свіжий альбом «Дівчино вишли листа», ще за рік - «Весілля під столом»; кілька касеток випустила також дрогобицька студія «Фенікс». Надалі Левко переключився на створення пісень для дітей - кращі з них увійшли до компакту «Казки Левка Дурка». (cheremshyna.org.ua)Якщо Ви справді бажаєте підтримати українське - після прослуховування, якщо музика вам сподобалась,
придбайте ліцензійний диск.
Підтримаймо вітчизняних виконавців!

Anonymous

Опублікувати 15-Чер-2022 08:14

[Цитувати]

VA - Українська Естрада (1971) [FLAC, vinyl rip] | Retro, Pop Стиль: Retro, Pop, Big Beat
Країна, місто: Україна
Видавець: "Мелодия"
Виконавці:
Надія Пащенко та Ніна Злобіна (1,3)
Надія Пащенко (2)
Назарій Яремчук та Василь Зінкевич (4)
естрадний ансамбль п/к Л. Зайдермана (2,3)
ансамбль "Смерічка" п/к Л. Дутківського (4)
Пісні:
    01. Зелен Клен (І.Поклад - Ю.Рибчинський)
    02. Коло Твого Двору (Е.Ханок - М.Глущенко)
    03. Весни Примари (В.Ільїн - В.Канаш)
    04. Червона Рута (В.Івасюк- муз. і сл.)
Тривалість: 00:12:10
Мова: українська
Аудіо-кодек: FLAC
Бітрейт: 2921 кб/с (192000Hz/24 bit Dual Mono)
Джерело: міньон (власний ріп)
Додаткова інформація:

Cпектр, рівень, ачх



Anonymous

Опублікувати 15-Чер-2022 08:14

[Цитувати]

Василь Зінкевич & Гурт Світязь - Найкращі пісні для вас (199Х) [FLAC, TapeRip] | Pop Стиль: Pop
Країна, місто: Україна
Видавець: pirat
Виконавці:
Василь Зінкевич & Гурт Світязь
Пісні:
    01. Міст надії
    02. Від перевалу до перевалу
    03. Два кольори
    04. Тарасова гора
    05. На щастя, на долю!
    06. Серцем лину до тієї дівчини
    07. Без коханої не жити
    08. Мамо
    09. Ще не вмерла Україна
    10. Хто винен
    11. Маріє
    12. Миколине весілля
    13. Жінка-варка
    14. Ти мені тепер не пара
    15. Знов я у гори іду
    16. Кохана ти одна
Тривалість: 01:00:09
Мова: українська
Аудіо-кодек: FLAC
Бітрейт: 898-1022 кб/с
Джерело: Sehrg-Gut, ярий тверезенник
Додаткова інформація:Pioneer CT-335 оцифрувавЯкщо Ви справді бажаєте підтримати українське - після прослуховування, якщо музика вам сподобалась,
придбайте ліцензійний диск.
Підтримаймо вітчизняних виконавців!
 

Поточний час: 04-Лип 20:53

Часовий пояс: UTC ± 0