Пошук знайшов 422 збігів

Автор Повідомлення

Anonymous

Опублікувати 14-Чер-2022 21:12

[Цитувати]

VA - Український танцювальний [Золота колекція] (2009) [FLAC] | Folk Стиль: Folk
Країна: Україна
Видавець: Астра Рекордс (AR 057-08)
Виконавці:
VA
Пісні:
    1. Чоботи (хорова група анс. Довбиського фарфор. заводу)
    2. Тещин танець та чоботи (троїсті музики с. Плиски)
    3. На досвітку (Н. Журавська, Л. Сорокіна)
    4. На вулиці скрипка й бас (троїсті музики с. Михайлівка)
    5. Ой, я, молода, на базар ходила (Л. Кондрашевська)
    6. З підсвистом (троїсті музики с. Тойкут)
    7. Наша баба на базарі була (вок. тріо Н. Цюпа, П. Павлюченко, В. Мартиненко)
    8. Дримбулька (троїсті музики с. Залуччя)
    9. Я щаслива зроду (Є. Крикун)
    10. Жубровицька полька (анс. нар. Музики с. Жубровичи)
    11. Ой, на горі два дубки (Раїса Кириченко)
    12. Джигун (троїсті музики с. Плиски)
    13. Продай, милий, сиві бички (Раїса Кириченко)
    14. Дирдинська полька (інстр. анс. с. Дирдино)
    15. Правда, люди, правда (вок. тріо фольк. анс. "Червона калина")
    16. Поюлиця (троїсті музики с. Велика Рудка)
    17. Дівчина моя, переяславко (дит. анс. "Зернятко")
    18. Козачок (троїсті музики с. Біпіля)
    19. Чи не той то Омелько (О. Гетьман, анс. "Кобзарик")
    20. Дрібні листки на капусті (троїсті музики с. Білин)
    21. Гречаники (фольк. анс. с. Дружба)
    22. Віночок українських народних мелодій (троїсті музики с. Плиски)
    23. Чічері (ВІА "Червона рута")
    24. Жайворонок (група "Плай")
    25. Діду з бородою (Кобза)
    26. Весільний танець (троїсті музики с. Тур’я)
    27. Мила моя (Іван Попович)
    28. Шабашівка (анс. нар. музики Червоноармійської меблевої фабрики)
    29. Порізала м пальчик (Вокально-інструментальний ансамбль Смерічка)
    30. Танцювальні мелодії (троїсті музики с. Малий Любінь)
    31. Підманула, підвела (Дует "Два кольори")
    32. Українські народні частівки (троїсті музики с. Санжариха)

log

Exact Audio Copy V1.0 beta 3 from 29. August 2011
EAC extraction logfile from 27. November 2012, 13:30
VA / Украинский танцевальный. Золотая коллекция
Used drive : TSSTcorpCDDVDW SH-222BB Adapter: 3 ID: 1
Read mode : Secure
Utilize accurate stream : Yes
Defeat audio cache : Yes
Make use of C2 pointers : No
Read offset correction : 6
Overread into Lead-In and Lead-Out : No
Fill up missing offset samples with silence : Yes
Delete leading and trailing silent blocks : No
Null samples used in CRC calculations : Yes
Used interface : Installed external ASPI interface
Used output format : User Defined Encoder
Selected bitrate : 1024 kBit/s
Quality : High
Add ID3 tag : No
Command line compressor : C:\Program Files (x86)\Exact Audio Copy\wavpack.exe
Additional command line options : -hm %source% %dest%
TOC of the extracted CD
Track | Start | Length | Start sector | End sector
---------------------------------------------------------
1 | 0:00.00 | 1:16.48 | 0 | 5747
2 | 1:16.48 | 0:59.14 | 5748 | 10186
3 | 2:15.62 | 2:30.33 | 10187 | 21469
4 | 4:46.20 | 0:58.50 | 21470 | 25869
5 | 5:44.70 | 1:45.47 | 25870 | 33791
6 | 7:30.42 | 1:20.27 | 33792 | 39818
7 | 8:50.69 | 3:00.52 | 39819 | 53370
8 | 11:51.46 | 0:47.25 | 53371 | 56920
9 | 12:38.71 | 2:01.12 | 56921 | 66007
10 | 14:40.08 | 1:56.11 | 66008 | 74718
11 | 16:36.19 | 2:21.57 | 74719 | 85350
12 | 18:58.01 | 0:48.09 | 85351 | 88959
13 | 19:46.10 | 2:21.34 | 88960 | 99568
14 | 22:07.44 | 1:12.00 | 99569 | 104968
15 | 23:19.44 | 1:42.42 | 104969 | 112660
16 | 25:02.11 | 1:02.15 | 112661 | 117325
17 | 26:04.26 | 1:41.70 | 117326 | 124970
18 | 27:46.21 | 1:33.23 | 124971 | 131968
19 | 29:19.44 | 2:44.05 | 131969 | 144273
20 | 32:03.49 | 1:21.26 | 144274 | 150374
21 | 33:25.00 | 2:52.29 | 150375 | 163303
22 | 36:17.29 | 1:31.10 | 163304 | 170138
23 | 37:48.39 | 3:39.07 | 170139 | 186570
24 | 41:27.46 | 3:04.57 | 186571 | 200427
25 | 44:32.28 | 2:50.54 | 200428 | 213231
26 | 47:23.07 | 1:12.15 | 213232 | 218646
27 | 48:35.22 | 2:53.68 | 218647 | 231689
28 | 51:29.15 | 1:04.52 | 231690 | 236541
29 | 52:33.67 | 2:35.01 | 236542 | 248167
30 | 55:08.68 | 0:55.45 | 248168 | 252337
31 | 56:04.38 | 3:26.71 | 252338 | 267858
32 | 59:31.34 | 2:12.26 | 267859 | 277784
Range status and errors
Selected range
Filename F:\NetLab\VA - Украинский танцевальный. Золотая коллекция\VA - Украинский танцевальный. Золотая коллекция.wav
Peak level 98.4 %
Extraction speed 7.4 X
Range quality 99.9 %
Test CRC E979D4C0
Copy CRC E979D4C0
Copy OK
No errors occurred
AccurateRip summary
Track 1 not present in database
Track 2 not present in database
Track 3 not present in database
Track 4 not present in database
Track 5 not present in database
Track 6 not present in database
Track 7 not present in database
Track 8 not present in database
Track 9 not present in database
Track 10 not present in database
Track 11 not present in database
Track 12 not present in database
Track 13 not present in database
Track 14 not present in database
Track 15 not present in database
Track 16 not present in database
Track 17 not present in database
Track 18 not present in database
Track 19 not present in database
Track 20 not present in database
Track 21 not present in database
Track 22 not present in database
Track 23 not present in database
Track 24 not present in database
Track 25 not present in database
Track 26 not present in database
Track 27 not present in database
Track 28 not present in database
Track 29 not present in database
Track 30 not present in database
Track 31 not present in database
Track 32 not present in database
None of the tracks are present in the AccurateRip database
End of status report

fooCDtect

fooCDtect - foobar2000 + auCDtect, baralgin.
auCDtect: CD records authenticity detector, version 0.8.2
Copyright (c) 2004 Oleg Berngardt. All rights reserved.
Copyright (c) 2004 Alexander Djourik. All rights reserved.
mode: 0
===========================================
Track: 01 - Чоботи
Quality: CDDA 100%
===========================================
Track: 02 - Тещин танець та чоботи
Quality: CDDA 100%
===========================================
Track: 03 - На досвітку
Quality: CDDA 99%
===========================================
Track: 04 - На вулиці скрипка й бас
Quality: CDDA 100%
===========================================
Track: 05 - Ой, я, молода, на базар ходила
Quality: CDDA 99%
===========================================
Track: 06 - З підсвистом
Quality: MPEG 95%
===========================================
Track: 07 - Наша баба на базарі була
Quality: CDDA 99%
===========================================
Track: 08 - Дримбулька
Quality: MPEG 95%
===========================================
Track: 09 - Я щаслива зроду
Quality: CDDA 100%
===========================================
Track: 10 - Жубровицька полька
Quality: MPEG 95%
===========================================
Track: 11 - Ой, на горі два дубки
Quality: CDDA 99%
===========================================
Track: 12 - Джигун
Quality: MPEG 79%
===========================================
Track: 13 - Продай, милий, сиві бички
Quality: CDDA 100%
===========================================
Track: 14 - Дирдинська полька
Quality: MPEG 95%
===========================================
Track: 15 - Правда, люди, правда
Quality: CDDA 100%
===========================================
Track: 16 - Поюлиця
Quality: CDDA 100%
===========================================
Track: 17 - Дівчина моя, переяславко
Quality: CDDA 99%
===========================================
Track: 18 - Козачок
Quality: CDDA 100%
===========================================
Track: 19 - Чи не той то Омелько
Quality: CDDA 100%
===========================================
Track: 20 - Дрібні листки на капусті
Quality: CDDA 99%
===========================================
Track: 21 - Гречаники
Quality: CDDA 100%
===========================================
Track: 22 - Віночок українських народних мелодій
Quality: MPEG 95%
===========================================
Track: 23 - Чічері
Quality: CDDA 100%
===========================================
Track: 24 - Жайворонок
Quality: CDDA 100%
===========================================
Track: 25 - Діду з бородою
Quality: CDDA 100%
===========================================
Track: 26 - Весільний танець
Quality: MPEG 95%
===========================================
Track: 27 - Мила моя
Quality: CDDA 100%
===========================================
Track: 28 - Шабашівка
Quality: MPEG 100%
===========================================
Track: 29 - Порізала м пальчик
Quality: CDDA 100%
===========================================
Track: 30 - Танцювальні мелодії
Quality: MPEG 95%
===========================================
Track: 31 - Підманула, підвела
Quality: CDDA 100%
===========================================
Track: 32 - Українські народні частівки
Quality: CDDA 100%
===========================================
Тривалість: 01:01:44
Мова: українська, відсутня (2,4,6,8,10,12,14,16,18,20,22,24,26,28,30,32)
Аудіо-кодек: FLAC
Бітрейт: 866 кб/с
Джерело: нетлаб (виправив теги, перепакував у флак)
Додаткова інформація:Зазвичай диски "Золотої колекції" представляють досить рідкісні записи широко (або доволі широко) відомих виконавців. Але цього разу новий диск є особливим одразу з трьох причин. Перша – тема: досі в межах колекції ще не виходили збірки, присвячені українським народним танцям. Друга – в даному випадку Ви майже не побачите відомих імен. Основу збірки складають записи колективів, практично невідомих великому загалові – хоча в питаннях майстерності вони і не поступаються своїм більш відомим колегам по цеху. Ну і третя причина є вже більш звичною для цієї серії: навряд чи Ви зможете ще десь знайти представлені тут записи, адже вони робилися спеціально для фондів НРКУ, і в інших архівах їх просто немає. А в тому, що це варто почути, сумніватися не випадає – зрештою, для здійснення фондових записів завжди відбирали лише кращих, найбільш характерних і цікавих.Якщо Ви справді бажаєте підтримати українське - після прослуховування, якщо музика вам сподобалась,
придбайте ліцензійний диск.
Підтримаймо вітчизняних виконавців!

Anonymous

Опублікувати 14-Чер-2022 21:12

[Цитувати]

Kapela Romana Kumłyka Czeremosz - Muzyka huculska (2002) [FLAC] | Folk Стиль: Folk
Країна, місто: Україна, Верховина
Видавець: Польша
Виконавці:
Роман Кумлик
Гуцульська капелла «Черемош»
Пісні:
    1. Trembity
    2. Legenda o pasterzu co owce zgubił
    3. Telenka
    4. Zazula
    5. O Karpatach
    6. Arkan
    7. Rachowskie śpiewanki
    8. Hucułka ślubna
    9. Reszeto
    10. Koza
    11. Polka bukowińska
    12. Cymbały
    13. Hucułka bukowińska
    14. Weselne śpiewanki
    15. Hucułka kołomyjska
    16. Polka mołdawska
    17. Kolęda, plies
    18. Kolęda przed chatą
    19. Kolęda, kruhlyk
Тривалість: 01:00:00
Мова: українська
Аудіо-кодек: FLAC
Бітрейт: 698 кб/с
Джерело: власний ріп
Додаткова інформація:Даний альбом був записаний на студії в Польші. Ріп зроблений із копії диску, який мав нагоду придбати у Верховині в пам'ять славного музиканта-віртуоза, «людину-оркестр» та патріота Гуцульського краю - Романа Кумлика.

Звіт ЕАС про видобування

Exact Audio Copy V1.1 from 23. June 2015
Отчёт EAC об извлечении, выполненном 28. декабря 2016, 14:17
Kapela Romana Kumlyka / Czeremosz - Muzyka huculska
Дисковод: ASUS DRW-2014L1T Adapter: 0 ID: 3
Режим чтения : Достоверность
Использование точного потока : Да
Отключение кэша аудио : Да
Использование указателей C2 : Нет
Коррекция смещения при чтении : 6
Способность читать области Lead-in и Lead-out : Нет
Заполнение пропущенных сэмплов тишиной : Да
Удаление блоков с тишиной в начале и конце : Нет
При вычислениях CRC использовались нулевые сэмплы : Да
Интерфейс : Установленный внешний ASPI-интерфейс
Выходной формат : Пользовательский кодировщик
Выбранный битрейт : 1024 kBit/s
Качество : Высокий
Добавление ID3-тега : Нет
Утилита сжатия : C:\Program Files (x86)\Exact Audio Copy\Flac\flac.exe
Дополнительные параметры : -V -8 -T "Date=%year%" -T "Genre=%genre%" %source%
TOC извлечённого CD
Трек | Старт | Длительность | Начальный сектор | Конечный сектор
---------------------------------------------------------------------
1 | 0:00.00 | 0:36.52 | 0 | 2751
2 | 0:36.52 | 4:28.25 | 2752 | 22876
3 | 5:05.02 | 2:57.38 | 22877 | 36189
4 | 8:02.40 | 4:44.34 | 36190 | 57523
5 | 12:46.74 | 5:48.41 | 57524 | 83664
6 | 18:35.40 | 4:00.04 | 83665 | 101668
7 | 22:35.44 | 3:47.25 | 101669 | 118718
8 | 26:22.69 | 6:33.13 | 118719 | 148206
9 | 32:56.07 | 2:50.68 | 148207 | 161024
10 | 35:47.00 | 2:34.35 | 161025 | 172609
11 | 38:21.35 | 2:49.35 | 172610 | 185319
12 | 41:10.70 | 2:15.18 | 185320 | 195462
13 | 43:26.13 | 2:48.30 | 195463 | 208092
14 | 46:14.43 | 4:48.02 | 208093 | 229694
15 | 51:02.45 | 6:43.22 | 229695 | 259941
16 | 57:45.67 | 5:41.54 | 259942 | 285570
17 | 63:27.46 | 2:01.69 | 285571 | 294714
18 | 65:29.40 | 2:42.55 | 294715 | 306919
19 | 68:12.20 | 1:03.03 | 306920 | 311647
Характеристики диапазона извлечения и сообщения об ошибках
Выбранный диапазон
Имя файла E:\ЕАС роботи\Kapela Romana Kumlyka - Czeremosz - Muzyka huculska.wav
Пиковый уровень 66.2 %
Скорость извлечения 8.1 X
Качество диапазона 99.9 %
CRC копии 254580A8
Копирование... OK
Ошибок не произошло
Конец отчёта
==== Контрольная сумма отчёта FB0D97017F69BF7A3633C7A37D6497C6B5B2080B03DEBCE2362CC774E393C4B0 ====

Обкладинки альбому взяті з інтернету

Якщо Ви справді бажаєте підтримати українське - після прослуховування, якщо музика вам сподобалась, придбайте ліцензійний диск. Підтримаймо вітчизняних виконавців!

Anonymous

Опублікувати 14-Чер-2022 21:12

[Цитувати]

Дударик назавжди - "Дударик" - назавжди (або старий кінь не бороздить) (2001) [FLAC] | Folk Стиль: Folk, Acapella
Країна, місто: Україна, Львів
Видавець: Гал Рекордс
Виконавці:
Дударик назавжди, художній керівник - Дмитро Кацал.
Пісні:
    01 - Діду мій, Дударику
    02 - Ой насувалась та й чорна хмара
    03 - Гей, наливайте
    04 - Світи, місяченьку
    05 - Пісня про сусідку
    06 - Гаю-гаю, зелен-розмаю
    07 - Туман яром
    08 - Наливайте, браття
    09 - Ой попід гай зелененький
    10 - Ой гук, мати, гук
    11 - Утоптала стежечку
    12 - Місяць на небі
    13 - Ой полечко, поле
    14 - Чорноморець
    15 - Цвіте терен
    16 - Як ішов я з Дебречина
    17 - Не сміє бути в нас страху
    18 - Пісня про галичанку
    19 - Їхав козак містом
    20 - Як за дальнім небосхилом
    21 - Тихо над річкою
    22 - Чом-чом, земле моя
Тривалість: 00:51:15
Мова: українська
Аудіо-кодек: FLAC
Бітрейт: ~500-780 кб/с
Джерело: власний ріп
Додаткова інформація:

Дударик можеш Ти не знати, та диск наш в хаті мусиш мати!

"Дударик назавжди" було створено із числа співаків-випускників хорової капели "Дударик" з нагоди 30-тої річниці колективу. На сьогодні "Дударик назавжди" налічує понад 40 учасників, і в творчому доробку має записаний компакт-диск із одноіменною назвою, участь у мистецьких та благочинних акціях та концертах.
"Дударик назавжди" - це творча лабораторія, що має достатній потенціал для того, аби на досконалому рівні докластися до відродження Українського мистецтва. Властиво із цих міркувань було започатковано проект "Музика на зламі тисячоліть", метою якого є дослідження, відновлення, представлення та популяризації творів Національної та зарубіжної музичної спадщини, як минулого тисячоліття, так і сьогоднішніх, створення колекції CD (компакт-дисків) із записами сучасного виконання шедеврів народної та авторської музики. У свою чергу, концерти та потужна медіа-кампанія стануть запорукою успішного провадження проекту як на території України, так і поза її межами. UMKA
Якщо Ви справді бажаєте підтримати українське - після прослуховування, якщо музика вам сподобалась, придбайте ліцензійний диск. Підтримаймо вітчизняних виконавців!

Anonymous

Опублікувати 14-Чер-2022 21:12

[Цитувати]

Василь Жданкін - Дискографія (3 альбоми) (1991-2006) [FLAC] | Acoustic Стиль: Folk
Країна, місто: Україна
Видавець: СП Студія Лева, Атлантік
Виконавці:
Василь Жданкін - вокал(баритон), кобза
Альбоми:

Б'ють Пороги (1991)


Тривалість: 52:09
Бітрейт: 736-859 кб/с
Ріпінг: RubyRipper, secure ripper for Linux
Треклист:
1. Чуєш брате мій
музика: Б. Лепкий
слова: Б. Лепкий
2. Чорна рілля ізорана
слова: народна
3. Всякому городу
слова: Г. Сковорода
4. Гей, літа орел
слова: Т. Шевченко
5. Туман долинами
слова: народна
6. Думи мої
слова: Т. Шевченко
7. Козацький марш
слова: народна
8. Ой, не пугай пугаченько
слова: народна
9. Ой, зійшла зоря
музика: обр. М. Леонтовича
слова: народна
10. Ой, сів пугач на могилі
слова: народна
11. У Києві на риночку
слова: народна
12. Ой, ходив чумак
слова: народна
13. Із полону
музика: Е. Драч
слова: Е. Драч
14. Б’ють пороги
музика: Е. Драч
слова: Т. Шевченко
15. Наливаймо, браття
слова: народна
16. Перша глава Біблії
музика: В. Жданкін
слова: Б.-І. Антонич
17. Портрет теслі
музика: В. Жданкін
слова: Б.-І. Антонич
18. Життя по-грецьки – біос
музика: В. Жданкін
слова: Б.-І. Антонич
19. На зелен листочку
музика: В. Жданкін
слова: І. Малкович
20. Коляда
музика: В. Жданкін
слова: Б.-І. Антонич

Ой зiйшла зоря над Почаєвом... (Bootleg) (2003)


Тривалість: 59:09
Бітрейт: 449-583 кб/с
Ріпінг: EAC
Треклист:
01. Щедрівка, XYI ст., музика: В. Жданкін
02. Щедрівка, XIY ст., музика: В. Жданкін
03. Щедрівка, XIY ст., музика: В. Жданкін
04. Величальна, XYI ст., музика В. Жданкін
05. Б’ють пороги, музика: Е. Драч, слова: Т. Шевченко
06. Господи помилуй, музика: В. Жданкін, слова: В. Жданкін
07. Відповідь земляку, слова та музика: А. Драч
08. Близько городу Єрусалимського...( З Голубиної книги, XIII ст.) / Близко городу Ерусалимского...( Из Голубиной книги), музика: В. Жданкін
09. Величальна Русі ( З Слова про погибель Руської землі) / Величальная Руси (Из Слово о погибели Русской земли), музика: В. Жданкін
10. Билина про Кременець, музика: В. Жданкін, слова: В. Жданкін
11. Посвята львівському православному братству, музика: В. Жданкін, слова: В. Жданкін
12. Ой, зiйшла зоря..., народний кант XYII ст.
13. Посвята Пресвятій Богородиці Великого Князя К. Романова / Посвящение Пресвятой Богородице Великого Князя К. Романова
14. За Віру, Царя та Вітчизну / За Веру, Царя и Отечество, слова та музика: В. Жданкін
15. Про птахів / О птицах, слова та музика: А. Градский
16. Колискова, слова та музика: В. Жданкін
17. Над небом блакитним / Над небом голубым, ірландська народна пісня XIY ст.
Різдвяний концерт 25.01.2003 від Р.Х., ляльковий театр м. Тернополя.

Одкровення (2006)


Тривалість: 51:37
Бітрейт: 587-683 кб/с
Ріпінг: EAC
Треклист:
01. Пішов же Йвасю
музика: В. Жданкін
слова: сл. народні
02. Умру я й умру (народна)
03. Што ж нам било з Світа начала
музика: В. Жданкін
слова: сл. народні
04. Сказання про Ноя
музика: В. Жданкін
слова: сл. народні
05. Одкровення
музика: В. Жданкін
слова: І. Малкович
06. Весна
музика: Б. Антонич
слова: Б. Антонич
07. Полетів би’м на край світа (народна)
08. Ой, не жалуй, моя мила (народна)
09. Ой, не пугай, пугаченьку (народна)
10. Билина про Кременець
музика: В. Жданкін
слова: В. Жданкін
11. Посвята львівському православному братству
музика: В. Жданкін
слова: В. Жданкін
12. Забіліли сніги (народна)
13. Б’ють пороги
музика: Е. Драч
слова: Т. Шевченко
14. Господи помилуй
музика: В. Жданкін
слова: В. Жданкін
15. Пісня польських переселенців (моєму батькові) (народна)
16. Зірка Мономаха
музика: Е. Драч
слова: В. Жданкін
17. Кондак ікони Почаївської Божої Матері
музика: В. Жданкін
слова: сл. з Біблії
Тривалість: 02:42:46
Мова: українська(у альбомі Ой зiйшла зоря над Почаєвом... (Bootleg) (2003) треки 08, 09, 13, 14, 15, 17 - російська)
Аудіо-кодек: FLAC
Бітрейт: 449-859 кб/с
Джерело: rutracker.org & ex.ua
Додаткова інформація:Василь Жданкін - український бард, кобзар, бандурист
Народився 23 травня 1958 р. в с. Гурмай Краснодарського краю. Співак (баритон), кобзар.
Лауреат II Всесоюзного конкурсу студентської молоді (Миколаїв, 1987 р.), фестивалю «Червона рута» (Чернiвцi, 1989 р.).
В 1978—1980 рр. — керiвник вокального ансамблю Кременецького будинку культури, в 1987 р. закінчив Рiвенський iнститут культури.
Працював артистом Рiвенської та Київської фiлармонiй. Мешкає в Кремiнцi Тернопiльскої областi.
Його називають Кобзарем, Співцем, Подвижником Духу. Незважаючи на те, що протягом останніх 10 років Василя не можна було почути на жодному концерті, його голос все ще бринить у серцях його численних прихильників. У серці кожного, хто хоч раз зазнав розкоші від зустрічі з його неповторним тембром, хто, хоч на мить, оцінив щире золото його інтонацій і хто, хоч подумки, зміг пережити з Василем той невигойний душевний біль незчисленних поколінь князів та гречкосіїв, козаків і священиків, воїнів і поетів за несправдженою українською мрією...
Кирило Стеценко
Василь Жданкін – безперечне Явище в українській пісні. Ще з часів першого “Оберегу” та “Червоної рути”, де він став володарем Гран-прі, запам’яталася його кремезна босонога постать та густий і проникливий голос. Його бандура будила в нас щось сокровенне, глибинне, справдешнє. Тоді його називали голосом української землі. Він був поза часом і простором, як ті колядки, що прийшли до нас із глибини віків як “Зелена Євангелія” Богдана-Ігоря Антонича, яку він вперше доніс до широкого слухача, як Шевченкова “Чорна рілля”, що корінням вросла в наші душі.
Наталка Позняк-Хоменко
Василь Жданкін це голос, що об’єднує покоління, це велике, мудре і щире слов’янське серце, що загартувавши дух і волю, пройшло стільки доріг. Він — прадавній, як сама Україна, він — це її сьогодення.
Ірина Шинкарук
При оформленні використав інформацію з релізів пана Skiff, дякую.
Василь Жданкін - Одкровення (2006) [MP3] | Acoustic
Василь Жданкін - Б’ють пороги (1991, 2006) [MP3] | Acoustic
Якщо Ви справді бажаєте підтримати українське - після прослуховування, якщо музика вам сподобалась, придбайте ліцензійний диск. Підтримаймо вітчизняних виконавців!

Anonymous

Опублікувати 14-Чер-2022 21:12

[Цитувати]

Ольга Богомолець - Осінній день (2001) [FLAC] | Acoustic / Bard Стиль: Acoustic, Instrumental, Bard
Країна, місто: Україна, Київ
Сайти: Офіційний сайт
Видавець: UKRMUSIC
Виконавці:
Ольга Богомолець
Пісні:
    01. Недумано, негадано... (слова: Л. Костенко)
    02. Напитись голосу... (слова: Л. Костенко)
    03. Папороть (слова: Л. Костенко)
    04. Чоловіче мій (слова: Л. Костенко)
    05. Двори стоять (слова: Л. Костенко)
    06. Не приходь (слова: О. Галета)
    07. І як тепер (слова: Л. Костенко)
    08. Між іншим (слова: Л. Костенко)
    09. Зупинись (слова: О. Богомолець)
    10. І не минає (слова: Л. Костенко)
    11. Осінній день (слова: Л. Костенко)
    12. В дні прожиті (слова: Л. Костенко)
    13. Поворожи собі... (слова: О. Богомолець)
    14. Очима ти сказав... (слова: Л. Костенко)
    15. Я святкую життя (слова: І. Жиленко)
    16. Ой, Андрійку (слова: О. Богомолець)
    17. Карпати (слова: О. Богомолець)
    18. Ой, леле-лелеко (слова: О. Богомолець)
    19. Саксофон (слова: О. Богомолець )
    20. Ходить ніч (слова: М. Вінграновський)
Тривалість: 00:59:38
Мова: українська
Аудіо-кодек: FLAC
Бітрейт: 768 кб/c
Джерело: диск
Додаткова інформація:
Це FLAC версія диску, який шанувальники та відвідувачі сайту знають - ось посилання на mp3 версію - https://toloka.to/t2952
Але, погодьтесь, слухати Ольгу Богомолець краще без <<редакційних>> правок mp3 кодека
Також до уваги:
Ольга Богомолець - kairos (2006) [FLAC]
Ольга Богомолець, І. Жук - Нас двоє (2006) [FLAC]

Якщо Ви справді бажаєте підтримати українське - після прослуховування, якщо музика вам сподобалась, придбайте ліцензійний диск. Підтримаймо вітчизняних виконавців!

Anonymous

Опублікувати 14-Чер-2022 21:12

[Цитувати]

Ольга Богомолець, Ігор Жук - Нас двоє (2006) [FLAC] | Acoustic / Bard Стиль: Neoclassic Acoustic
Країна, місто: Україна, Київ
Сайти: Офіційний сайт
Видавець: САМЕ ТАК!
Виконавці:
Ольга Богомолець, Ігор Жук.
Пісні:
    01. Осінній день (Л.Костенко, муз. О.Богомолець)
    02. Портрет (І.Жук)
    03. В пустелі... (Л.Костенко, муз. О.Богомолець)
    04. Слова (І.Жук)
    05. Amore, amo (Л.Костенко, муз. О.Богомолець)
    06. Що в нас було... (Л.Костенко, муз. О.Богомолець)
    07. Ті журавлі... (Л.Костенко, муз. О.Богомолець)
    08. Закований лицар (І.Жук)
    09. Освідчення (І.Жук)
    10. Мавка (О.Богомолець)
    11. Зоряний ноктюрн №2 (І.Жук)
    12. Ялинка (Л.Костенко, муз. О.Богомолець)
    13. Зоряний ноктюрн №3 (І.Жук)
    14. Місячна соната (Л.Костенко, муз. О.Богомолець)
    15. Гайдн. Прощальна симфонія (І.Жиленко, муз. І. Жука)
    16. Адам і Єва (І.Жук)
    17. Колискова (М.Вінграновський, муз. О.Богомолець)
    18. Лист з неоліту (І.Жук)
    19. Руан (Л.Костенко, муз. О.Богомолець)
    20. Любов Нансена (Л.Костенко, муз. О.Богомолець, І. Жука)
    21. Розпусна вдовиця (фрагмент із поеми Л.Костенко "Мандрівки серця", муз. О.Богомолець, І. Жука)
    22. Нас мало (І.Жук)
Тривалість: 01:08:14
Мова: українська
Аудіо-кодек: FLAC
Бітрейт: 756.7 kbit
Джерело: Власний оригинальний диск

Log-файл


Exact Audio Copy V1.0 beta 1 from 15. November 2010
EAC extraction logfile from 1. January 2011, 18:35
Unknown Artist / Unknown Title
Used drive : _NEC DVD_RW ND-4550A Adapter: 1 ID: 0
Read mode : Secure
Utilize accurate stream : Yes
Defeat audio cache : No
Make use of C2 pointers : Yes
Combined read/write offset correction : 0
Overread into Lead-In and Lead-Out : No
Fill up missing offset samples with silence : Yes
Delete leading and trailing silent blocks : No
Null samples used in CRC calculations : No
Used interface : Installed external ASPI interface
Used output format : User Defined Encoder
Selected bitrate : 768 kBit/s
Quality : High
Add ID3 tag : No
Command line compressor : C:\Program Files\Exact Audio Copy\FLAC\FLAC.EXE
Additional command line options : -6 -V -T "ARTIST=%a" -T "TITLE=%t" -T "ALBUM=%g" -T "DATE=%y" -T "TRACKNUMBER=%n" -T "GENRE=%m" -T "COMMENT=%e" %j--picture="%i"%j %s -o %d
TOC of the extracted CD
Track | Start | Length | Start sector | End sector
---------------------------------------------------------
1 | 0:00.00 | 3:58.37 | 0 | 17886
2 | 3:58.37 | 2:54.66 | 17887 | 31002
3 | 6:53.28 | 4:23.00 | 31003 | 50727
4 | 11:16.28 | 2:11.31 | 50728 | 60583
5 | 13:27.59 | 3:12.37 | 60584 | 75020
6 | 16:40.21 | 2:41.25 | 75021 | 87120
7 | 19:21.46 | 2:41.34 | 87121 | 99229
8 | 22:03.05 | 2:11.04 | 99230 | 109058
9 | 24:14.09 | 2:46.59 | 109059 | 121567
10 | 27:00.68 | 3:24.55 | 121568 | 136922
11 | 30:25.48 | 1:54.60 | 136923 | 145532
12 | 32:20.33 | 3:15.25 | 145533 | 160182
13 | 35:35.58 | 3:28.41 | 160183 | 175823
14 | 39:04.24 | 4:05.00 | 175824 | 194198
15 | 43:09.24 | 3:26.61 | 194199 | 209709
16 | 46:36.10 | 2:34.67 | 209710 | 221326
17 | 49:11.02 | 3:57.16 | 221327 | 239117
18 | 53:08.18 | 1:53.41 | 239118 | 247633
19 | 55:01.59 | 2:46.64 | 247634 | 260147
20 | 57:48.48 | 3:35.63 | 260148 | 276335
21 | 61:24.36 | 5:50.07 | 276336 | 302592
22 | 67:14.43 | 1:22.56 | 302593 | 308798
Range status and errors
Selected range
Filename Z:\VMWARE_CHANGE\WAV\Bogomoletc_Zhuk.wav
Peak level 98.0 %
Extraction speed 0.3 X
Range quality 100.0 %
Copy CRC D1224D15
Copy OK
No errors occurred
End of status report
Додаткова інформація:Унікальне сполучення відомих бардів та виконавців.
Один з небагатьох дисків, на яких також є високоякісний запис І. Жука.
Думаю, що через особисті обставини, це перший та останній їх спільний диск, хоч дуже хочу, щоб я помилився.
Також до уваги:
Ольга Богомолець - Осінній день (2001) [FLAC]
Ольга Богомолець - Осінній день (2001) [MP3]
Ольга Богомолець - kairos (2006) [FLAC]

Якщо Ви справді бажаєте підтримати українське - після прослуховування, якщо музика вам сподобалась, придбайте ліцензійний диск. Підтримаймо вітчизняних виконавців!
Якщо не ми, то ХТО?

Anonymous

Опублікувати 14-Чер-2022 21:12

[Цитувати]

VA - Забава на панській горі 2 (2006) [FLAC] | Folk Стиль: Folk
Країна, місто: Україна, Львів
Видавець: студія "Фенікс", ТОВ "Ліда"
Виконавці:

Аранжування&#58;

А. Кок (2,3,5,9,11-15)
Мих. Стародуб (1,4,6-8,10)

Музика&#58;

А. Кок (2,3,5,13,15)
Мих. Стародуб (6,8,10)
М. Мазур (11)
народна (1,4,7,9,12,14)

Слова&#58;

Марія Стародуб (2,3,5,6,8,13,15)
Міша Стародуб (10)
Микола Мазур (11)
народні (1,4,7,9,12,14)
Акордеон: Андрій Кок
Гітара: Міша Стародуб
Пісні:
    1. Ірина
    2. Признач мені побачення
    3. Калинова мрія
    4. Марія
    5. Не залишай
    6. Я до війська не піду
    7. Ні Янічка ні Павлічка
    8. Зима
    9. Два дубки
    10. Не плач, кохана
    11. О, моя любов
    12. Ой чий то кінь стоїть
    13. Біда
    14. Бодай ся когут знудив
    15. Чия вина
    16. Зрадлива казка
    17. Bonus. Ірина (-)

лог

Exact Audio Copy V1.0 beta 1 from 15. November 2010
EAC extraction logfile from 8. March 2011, 11:16
Various / Zabava na panskii gori 2
Used drive : TSSTcorpDVD+-RW TS-L632H Adapter: 0 ID: 0
Read mode : Secure
Utilize accurate stream : Yes
Defeat audio cache : Yes
Make use of C2 pointers : No
Read offset correction : 6
Overread into Lead-In and Lead-Out : No
Fill up missing offset samples with silence : Yes
Delete leading and trailing silent blocks : No
Null samples used in CRC calculations : Yes
Used interface : Native Win32 interface for Win NT & 2000
Used output format : Internal WAV Routines
Sample format : 44.100 Hz; 16 Bit; Stereo
TOC of the extracted CD
Track | Start | Length | Start sector | End sector
---------------------------------------------------------
1 | 0:00.00 | 4:43.74 | 0 | 21298
2 | 4:43.74 | 3:52.42 | 21299 | 38740
3 | 8:36.41 | 4:19.25 | 38741 | 58190
4 | 12:55.66 | 4:56.13 | 58191 | 80403
5 | 17:52.04 | 4:21.06 | 80404 | 99984
6 | 22:13.10 | 4:38.01 | 99985 | 120835
7 | 26:51.11 | 4:42.73 | 120836 | 142058
8 | 31:34.09 | 4:14.24 | 142059 | 161132
9 | 35:48.33 | 4:03.73 | 161133 | 179430
10 | 39:52.31 | 4:48.49 | 179431 | 201079
11 | 44:41.05 | 5:12.31 | 201080 | 224510
12 | 49:53.36 | 3:32.01 | 224511 | 240411
13 | 53:25.37 | 4:49.01 | 240412 | 262087
14 | 58:14.38 | 4:14.49 | 262088 | 281186
15 | 62:29.12 | 4:33.01 | 281187 | 301662
16 | 67:02.13 | 4:52.00 | 301663 | 323562
17 | 71:54.13 | 4:41.02 | 323563 | 344639
Range status and errors
Selected range
Filename C:\Documents and Settings\Администратор\Мои документы\Мої роздачі\Various - Zabava na panskii gori 2.wav
Peak level 100.0 %
Extraction speed 0.3 X
Range quality 100.0 %
Test CRC 89B2D7B7
Copy CRC DE7A403C
Copy OK
No errors occurred
AccurateRip summary
Track 1 not present in database
Track 2 not present in database
Track 3 not present in database
Track 4 not present in database
Track 5 not present in database
Track 6 not present in database
Track 7 not present in database
Track 8 not present in database
Track 9 not present in database
Track 10 not present in database
Track 11 not present in database
Track 12 not present in database
Track 13 not present in database
Track 14 not present in database
Track 15 not present in database
Track 16 not present in database
Track 17 not present in database
None of the tracks are present in the AccurateRip database
End of status report
Тривалість: 01:11:54
Мова: українська
Аудіо-кодек: FLAC
Бітрейт: 973 кб/с
Джерело: CD

Anonymous

Опублікувати 14-Чер-2022 21:12

[Цитувати]

Фолькнери - Корисні речі (2014) [FLAC] | Ethno / Folk Стиль: Ethno / Folk
Країна, місто: Україна, Київ
Сайти: Офіційний сайт
Видавець: Наш Формат
Виконавці:
Володимир Муляр – ударні, гармоніка, гітара, бек-вокал
Ярина Квітка – спів, колісна ліра, дримба
Ірина Вірясова – баян, бек-вокал
Юля Совершенна – спів, барабан
Дмитро Сорокін – гітара, бас-гітара
Дмитро Матюхін – діджеріду (8)
Пісні:
    01. Да зима наша бєла
    02. Iван
    03. Гойдалка
    04. Розова-бєрьозова (На куль стала)
    05. Пас Василько стадом коні
    06. Таді, шугай, таді
    07. Карчата
    08. Ой, летіло помело
    09. Щодрий вечор
    10. Панночка
    11. Чайнушки
    12. Весна красна
    13. Випливало утєня

    Log

    Exact Audio Copy V1.0 beta 3 from 29. August 2011
    Отчёт EAC об извлечении, выполненном 15. июня 2014, 9:31
    Фолькнери / 2014 - Корисні речі
    Дисковод: ASUS DRW-2014S1T Adapter: 2 ID: 8
    Режим чтения : Достоверность
    Использование точного потока : Да
    Отключение кэша аудио : Да
    Использование указателей C2 : Нет
    Коррекция смещения при чтении : 6
    Способность читать области Lead-in и Lead-out : Нет
    Заполнение пропущенных сэмплов тишиной : Да
    Удаление блоков с тишиной в начале и конце : Нет
    При вычислениях CRC использовались нулевые сэмплы : Да
    Интерфейс : Встроенный Win32-интерфейс для Win NT/2000
    Обработка зазоров : Добавлено к предыдущему треку
    Выходной формат : Пользовательский кодировщик
    Выбранный битрейт : 128 kBit/s
    Качество : Высокий
    Добавление ID3-тега : Нет
    Утилита сжатия : C:\Program Files\Exact Audio Copy\Flac\flac.exe
    Дополнительные параметры : -V -8 -T "Genre=%genre%" -T "Artist=%artist%" -T "Title=%title%" -T "Album=%albumtitle%" -T "Date=%year%" -T "Tracknumber=%tracknr%" -T "Comment=%comment%" %source%
    TOC извлечённого CD
    Трек | Старт | Длительность | Начальный сектор | Конечный сектор
    ---------------------------------------------------------------------
    1 | 0:00.00 | 2:32.56 | 0 | 11455
    2 | 2:32.56 | 3:00.33 | 11456 | 24988
    3 | 5:33.14 | 3:26.48 | 24989 | 40486
    4 | 8:59.62 | 5:06.73 | 40487 | 63509
    5 | 14:06.60 | 3:00.34 | 63510 | 77043
    6 | 17:07.19 | 2:50.44 | 77044 | 89837
    7 | 19:57.63 | 4:44.31 | 89838 | 111168
    8 | 24:42.19 | 2:22.71 | 111169 | 121889
    9 | 27:05.15 | 3:41.15 | 121890 | 138479
    10 | 30:46.30 | 1:37.70 | 138480 | 145824
    11 | 32:24.25 | 3:46.58 | 145825 | 162832
    12 | 36:11.08 | 2:35.05 | 162833 | 174462
    13 | 38:46.13 | 4:32.35 | 174463 | 194897
    Трек 1
    Имя файла D:\Documents and Settings\user\Рабочий стол\«»—0–\01 Фолькнери Да зима наша бєла.wav
    Длина предзазора 0:00:02.00
    Пиковый уровень 100.0 %
    Скорость извлечения 3.6 X
    Качество трека 100.0 %
    CRC копии D8DAD3FF
    Копирование... OK
    Трек 2
    Имя файла D:\Documents and Settings\user\Рабочий стол\«»—0–\02 Фолькнери Iван.wav
    Пиковый уровень 100.0 %
    Скорость извлечения 5.1 X
    Качество трека 100.0 %
    CRC копии 9AEC2BE9
    Копирование... OK
    Трек 3
    Имя файла D:\Documents and Settings\user\Рабочий стол\«»—0–\03 Фолькнери Гойдалка.wav
    Пиковый уровень 100.0 %
    Скорость извлечения 5.5 X
    Качество трека 100.0 %
    CRC копии 774F9BF9
    Копирование... OK
    Трек 4
    Имя файла D:\Documents and Settings\user\Рабочий стол\«»—0–\04 Фолькнери Розова-бєрьозова (На куль стала).wav
    Пиковый уровень 100.0 %
    Скорость извлечения 6.4 X
    Качество трека 100.0 %
    CRC копии 27C79439
    Копирование... OK
    Трек 5
    Имя файла D:\Documents and Settings\user\Рабочий стол\«»—0–\05 Фолькнери Пас Василько стадом коні.wav
    Пиковый уровень 100.0 %
    Скорость извлечения 6.3 X
    Качество трека 100.0 %
    CRC копии 0A33001A
    Копирование... OK
    Трек 6
    Имя файла D:\Documents and Settings\user\Рабочий стол\«»—0–\06 Фолькнери Таді, шугай, таді.wav
    Пиковый уровень 100.0 %
    Скорость извлечения 6.5 X
    Качество трека 100.0 %
    CRC копии 54A47DCC
    Копирование... OK
    Трек 7
    Имя файла D:\Documents and Settings\user\Рабочий стол\«»—0–\07 Фолькнери Карчата.wav
    Пиковый уровень 100.0 %
    Скорость извлечения 7.4 X
    Качество трека 100.0 %
    CRC копии C04FD78B
    Копирование... OK
    Трек 8
    Имя файла D:\Documents and Settings\user\Рабочий стол\«»—0–\08 Фолькнери Ой, летіло помело.wav
    Пиковый уровень 100.0 %
    Скорость извлечения 6.8 X
    Качество трека 100.0 %
    CRC копии FB49349C
    Копирование... OK
    Трек 9
    Имя файла D:\Documents and Settings\user\Рабочий стол\«»—0–\09 Фолькнери Щодрий вечор.wav
    Пиковый уровень 99.5 %
    Скорость извлечения 7.4 X
    Качество трека 100.0 %
    CRC копии 385D0448
    Копирование... OK
    Трек 10
    Имя файла D:\Documents and Settings\user\Рабочий стол\«»—0–\10 Фолькнери Панночка.wav
    Пиковый уровень 100.0 %
    Скорость извлечения 5.1 X
    Качество трека 99.8 %
    CRC копии 4CA4BA8E
    Копирование... OK
    Трек 11
    Имя файла D:\Documents and Settings\user\Рабочий стол\«»—0–\11 Фолькнери Чайнушки.wav
    Пиковый уровень 100.0 %
    Скорость извлечения 7.7 X
    Качество трека 100.0 %
    CRC копии 58DBEAE3
    Копирование... OK
    Трек 12
    Имя файла D:\Documents and Settings\user\Рабочий стол\«»—0–\12 Фолькнери Весна красна.wav
    Пиковый уровень 100.0 %
    Скорость извлечения 7.6 X
    Качество трека 100.0 %
    CRC копии CC620B56
    Копирование... OK
    Трек 13
    Имя файла D:\Documents and Settings\user\Рабочий стол\«»—0–\13 Фолькнери Випливало утєня.wav
    Пиковый уровень 100.0 %
    Скорость извлечения 8.4 X
    Качество трека 100.0 %
    CRC копии C398C9F9
    Копирование... OK
    Ошибок не произошло
    Конец отчёта
    ==== Контрольная сумма отчёта A28734460F37EE48F0BAB854E591483C29ECE5D568EBFBCEFA7F9D85DF81C7E7 ====
Тривалість: 00:43:11
Мова: українська
Аудіо-кодек: FLAC
Бітрейт: 959 кб/с
Джерело: ріп зроблено з ліцензійного компакт-диска із власної фонотеки

Anonymous

Опублікувати 14-Чер-2022 21:12

[Цитувати]

Олесь Дяк - Магія Львова (2002) [FLAC] | Bard Стиль: Bard
Країна, місто: Україна, Львів
Видавець: Росток Рекордс
Виконавці:
Олесь Дяк
Пісні:
    01 - День міста Лева (присвята Ігореві Мельнику)
    02 - На кораблі
    03 - Каміння йде
    04 - Високий Замок сподівань
    05 - Вересень
    06 - Жарівка
    07 - Трамвай №7
    08 - Лист у минуле
    09 - Перехрестя
    10 - Балкон
    11 - Вже рік пройшов (присвята Олені Єлізаровій)
    12 - Останній атлант
    13 - Я люблю твої очі (присвята дружині Ірині)
    14 - Квітка (присвята синові Михайлику)
    15 - Зустріч зі Львовом (присвята Зіновію Шкутяку)
Тривалість: 00:52:40
Мова: українська
Аудіо-кодек: FLAC
Бітрейт: 688-1031 кб/с
Джерело: ярий тверезенник
Додаткова інформація:Диск надано Ігорем Качмариком з Дрогобича.Якщо Ви справді бажаєте підтримати українське - після прослуховування, якщо музика вам сподобалась,
придбайте ліцензійний диск.
Підтримаймо вітчизняних виконавців!

Anonymous

Опублікувати 14-Чер-2022 21:12

[Цитувати]

Гурт Кулі - Zеник (2018) [FLAC] | Bard Стиль: Bard
Країна, місто: Україна
Видавець: X-Project
Виконавці:
Зеновій Медюх - Керівник, вокал, гітара
Максим Перев'язко - Вокал, гітара
Віталій Гудзій - Аранжування
Пісні:
    01. Ми йдемо із Карпатського краю
    02. Мамо, не плач
    03. Хлопчина з Майдану
    04. Дівчина з Майдану
    05. ВДВ
    06. Гей! Гоп! Гоп-Цабе!
    07. SMS
    08. Доброго вам дня
    09. Анти&емігрант
    10. Анти&патріот
    11. Лента за лентою набої подавай
    12. Слава Україні!
    13. Дорога на схід - бійці АТО
    14. Молитва на Різдво
Тривалість: 00:48:08
Мова: українська
Аудіо-кодек: FLAC
Бітрейт: 335-993 кб/с
Джерело: ярий тверезенник, Ігор Качмарик (Дрогобич)
Додаткова інформація:Ці раритети надані Ігорем Качмариком з Дрогобича.Якщо Ви справді бажаєте підтримати українське - після прослуховування, якщо музика вам сподобалась,
придбайте ліцензійний диск.
Підтримаймо вітчизняних виконавців!

Anonymous

Опублікувати 14-Чер-2022 21:11

[Цитувати]

Хорея Козацька | Дискографія (4 альбоми) (2009-2012) [FLAC] | Folk Стиль: Folk
Країна, місто: Україна, Київ
Пісні:

Хорея Козацька - Рицер Смілостю Упоєнний (концерт у Луцькому замку&#41; (2009&#41;


01. Мире Лукавий (Стефан Яворський)
02. Михаїлу
03. Ой, славен явен
04. Возбранній воєводі (невідомий автор XV ст.)
05. Похід дружинників
06. Богородица Дівица (н. а. кін. XIV ст.)
07. Балетто Ружено
08. Хорея козацька
09. Їхав козак за Дунай
10. Шедше тріє царі
11. Кто кріпко на Бога уповая (Феофан Прокопович)
Видавець: "САМЕ ТАК!"
Виконавці:
    Тарас Компаніченко - кобза, бандура, ліра, кобза-лют, спів
    Данило Перцов - лізард, корнет, джаламай, шалімо, пандора, блок-флейта, спів
    Сергій Охрімчук - скрипка, спів
    Северин Даниленко - басоля, скрипка, спів
    Михайло Качалов - фідель, ліра, спів

EAC Log

Exact Audio Copy V1.0 beta 3 from 29. August 2011
Отчёт EAC об извлечении, выполненном 4. января 2012, 20:47
Хорея Козацька / Рицер Смілостю Упоєнний
Дисковод: PHILIPS SPD2519T Adapter: 2 ID: 0
Режим чтения : Достоверность
Использование точного потока : Да
Отключение кэша аудио : Да
Использование указателей C2 : Нет
Коррекция смещения при чтении : 6
Способность читать области Lead-in и Lead-out : Нет
Заполнение пропущенных сэмплов тишиной : Да
Удаление блоков с тишиной в начале и конце : Нет
При вычислениях CRC использовались нулевые сэмплы : Да
Интерфейс : Встроенный Win32-интерфейс для Win NT/2000
Выходной формат : Пользовательский кодировщик
Выбранный битрейт : 1024 kBit/s
Качество : Высокий
Добавление ID3-тега : Нет
Утилита сжатия : D:\soft_2\EAC\Exact Audio Copy\Flac\flac.exe
Дополнительные параметры : -V -8 -T "Date=%year%" -T "Genre=%genre%" %source%
TOC извлечённого CD
Трек | Старт | Длительность | Начальный сектор | Конечный сектор
---------------------------------------------------------------------
1 | 0:00.00 | 8:31.32 | 0 | 38356
2 | 8:31.32 | 2:38.31 | 38357 | 50237
3 | 11:09.63 | 5:59.10 | 50238 | 77172
4 | 17:08.73 | 4:09.64 | 77173 | 95911
5 | 21:18.62 | 11:26.24 | 95912 | 147385
6 | 32:45.11 | 3:03.68 | 147386 | 161178
7 | 35:49.04 | 2:57.47 | 161179 | 174500
8 | 38:46.51 | 3:35.07 | 174501 | 190632
9 | 42:21.58 | 5:06.28 | 190633 | 213610
10 | 47:28.11 | 5:35.38 | 213611 | 238773
11 | 53:03.49 | 4:33.58 | 238774 | 259306
Характеристики диапазона извлечения и сообщения об ошибках
Выбранный диапазон
Имя файла E:\Музіка!\from EAC\Хорея Козацька - Рицер Смілостю Упоєнний.wav
Пиковый уровень 98.8 %
Скорость извлечения 7.5 X
Качество диапазона 99.9 %
CRC теста D4B276B1
CRC копии D4B276B1
Копирование... OK
Ошибок не произошло
Конец отчёта
==== Контрольная сумма отчёта A631FF1036E46358A20D675682F263FF056868A6F20FA99EC2FD26995C0CAD7B ====

Спектр

Тривалість: 00:57:13
Бітрейт: 825 кб/с
Мова: українська

Хорея Козацька - Карміна Сарматіка (2009&#41;


01. С нами Бог (невідомий автор XVI ст.)
02. Воскресни Боже (н. а. XVI ст.)
03. Паска красная (н. а. XVI ст.)
04. Занехай ти мене (н. а. XVII ст.)
05. Адам і Ева (н. а. XVII ст.)
06. Дума гетьмана Мазепи (автор: Іван Мазепа)
07. Вірші на національний герб (автор: Григорій Грабянка, Дмитро Туптало)
08. Пийте, браття, попийте (невідомий автор XVIІ ст.)
09. Ой, на горі вогонь горить (невідомий автор XVIІ ст.)
10. Гомін, мати (н. а. XVII ст.)
11. Марш "Україна" (Григорій Китастий, Іван Багряний)
Видавець: "САМЕ ТАК!"
Виконавці:
    Тарас Компаніченко - кобза, бандура, ліра, кобза-лют, спів
    Данило Перцов - лізард, корнет, джаламай, шалімо, пандора, блок-флейта, спів
    Сергій Охрімчук - скрипка, спів
    Северин Даниленко - басоля, скрипка, спів
    Михайло Качалов - фідель, ліра, спів

EAC Log

Exact Audio Copy V1.0 beta 3 from 29. August 2011
Отчёт EAC об извлечении, выполненном 23. декабря 2011, 0:53
Хорея Козацька / Карміна Сарматіка
Дисковод: PHILIPS SPD2519T Adapter: 2 ID: 0
Режим чтения : Достоверность
Использование точного потока : Да
Отключение кэша аудио : Да
Использование указателей C2 : Нет
Коррекция смещения при чтении : 6
Способность читать области Lead-in и Lead-out : Нет
Заполнение пропущенных сэмплов тишиной : Да
Удаление блоков с тишиной в начале и конце : Нет
При вычислениях CRC использовались нулевые сэмплы : Да
Интерфейс : Встроенный Win32-интерфейс для Win NT/2000
Выходной формат : Пользовательский кодировщик
Выбранный битрейт : 1024 kBit/s
Качество : Высокий
Добавление ID3-тега : Нет
Утилита сжатия : D:\soft_2\EAC\Exact Audio Copy\Flac\flac.exe
Дополнительные параметры : -V -8 -T "Date=%year%" -T "Genre=%genre%" %source%
TOC извлечённого CD
Трек | Старт | Длительность | Начальный сектор | Конечный сектор
---------------------------------------------------------------------
1 | 0:02.00 | 4:38.72 | 150 | 21071
2 | 4:40.72 | 1:28.66 | 21072 | 27737
3 | 6:09.63 | 1:20.43 | 27738 | 33780
4 | 7:30.31 | 8:32.50 | 33781 | 72230
5 | 16:03.06 | 3:32.52 | 72231 | 88182
6 | 19:35.58 | 9:33.37 | 88183 | 131194
7 | 29:09.20 | 6:06.12 | 131195 | 158656
8 | 35:15.32 | 3:09.50 | 158657 | 172881
9 | 38:25.07 | 17:10.00 | 172882 | 250131
10 | 55:35.07 | 3:38.45 | 250132 | 266526
11 | 59:13.52 | 3:52.13 | 266527 | 283939
Характеристики диапазона извлечения и сообщения об ошибках
Выбранный диапазон
Имя файла E:\Музіка!\from EAC\Хорея Козацька - Карміна Сарматіка.wav
Пиковый уровень 98.8 %
Скорость извлечения 2.4 X
Качество диапазона 100.0 %
CRC теста 582CFAFD
CRC копии 582CFAFD
Копирование... OK
Ошибок не произошло
Конец отчёта
==== Контрольная сумма отчёта C3B4E73D09516250625A43BE19020640F9841D7826858C5DBBF31A180474CD34 ====

Спектр

Тривалість: 01:02:43
Бітрейт: 746 кб/с
Мова: українська

Гуляйгород / Хорея Козацька - Тера Козацька (2010&#41;


01. Із-за гори, із-за кручі (історична)
02. Орлиця (танець)
03. Тиха, тиха на дворі погода (лірична)
04. Гопак (танець)
05. Ой, туман яром (лірична)
06. Ой у тебе, дядю (щедрівка)
07. Возбранній воєводі (кондак)
08. Кто кріпко на Бога уповая (кант)
09. Оле, оле, окаянная душе (духовний концерт)
10. Богородице вірним обороно (кант)
11. Хорея Козацька (танець)
12. На ріках сідохом горка Вавилона (псалом)
13. Санжарівка (танець)
14. Пийте, браття, попийте (банкетний кант)
Видавець: "Арт Велес"
Виконавці:
    "Гуляйгород": Анастасія Філатова, Данило Данилейко, Ірина Барамба, Кий Даниленко, Олександр Вовк, Олексій Нагорнюк, Олена Дідик, Руслан Павлюк, Северин Данилейко, Сергій Постольников.
    "Хорея Козацька": Данило Перцов, Михайло Качалов, Іванна Данилейко, Сергій Охрімчук, Тарас Компаніченко.

EAC Log

Exact Audio Copy V1.0 beta 3 from 29. August 2011
Отчёт EAC об извлечении, выполненном 26. февраля 2012, 1:14
Гуляйгород, Хорея Козацька / Тера Козацька
Дисковод: PHILIPS SPD2519T Adapter: 2 ID: 0
Режим чтения : Достоверность
Использование точного потока : Да
Отключение кэша аудио : Да
Использование указателей C2 : Нет
Коррекция смещения при чтении : 6
Способность читать области Lead-in и Lead-out : Нет
Заполнение пропущенных сэмплов тишиной : Да
Удаление блоков с тишиной в начале и конце : Нет
При вычислениях CRC использовались нулевые сэмплы : Да
Интерфейс : Встроенный Win32-интерфейс для Win NT/2000
Выходной формат : Пользовательский кодировщик
Выбранный битрейт : 1024 kBit/s
Качество : Высокий
Добавление ID3-тега : Нет
Утилита сжатия : D:\soft_2\EAC\Exact Audio Copy\Flac\flac.exe
Дополнительные параметры : -V -8 -T "Date=%year%" -T "Genre=%genre%" %source%
TOC извлечённого CD
Трек | Старт | Длительность | Начальный сектор | Конечный сектор
---------------------------------------------------------------------
1 | 0:00.00 | 5:08.10 | 0 | 23109
2 | 5:08.10 | 3:00.58 | 23110 | 36667
3 | 8:08.68 | 5:03.58 | 36668 | 59450
4 | 13:12.51 | 3:13.42 | 59451 | 73967
5 | 16:26.18 | 6:54.09 | 73968 | 105026
6 | 23:20.27 | 6:21.12 | 105027 | 133613
7 | 29:41.39 | 4:27.31 | 133614 | 153669
8 | 34:08.70 | 4:28.50 | 153670 | 173819
9 | 38:37.45 | 6:46.24 | 173820 | 204293
10 | 45:23.69 | 6:52.06 | 204294 | 235199
11 | 52:16.00 | 2:54.66 | 235200 | 248315
12 | 55:10.66 | 10:09.53 | 248316 | 294043
13 | 65:20.44 | 2:21.59 | 294044 | 304677
14 | 67:42.28 | 4:21.18 | 304678 | 324270
Характеристики диапазона извлечения и сообщения об ошибках
Выбранный диапазон
Имя файла E:\Музіка!\from EAC\Гуляйгород, Хорея Козацька - Тера Козацька.wav
Пиковый уровень 100.0 %
Скорость извлечения 8.2 X
Качество диапазона 99.9 %
CRC теста 8CB9A1E0
CRC копии 8CB9A1E0
Копирование... OK
Ошибок не произошло
AccurateRip: сводка
Трек 1 : извлечено точно (доверие 1) [28D11D94] (AR v1)
Трек 2 : извлечено точно (доверие 1) [A1801192] (AR v1)
Трек 3 : извлечено точно (доверие 1) [BF27D073] (AR v1)
Трек 4 : извлечено точно (доверие 1) [3B63AAAA] (AR v1)
Трек 5 точность не определена (достоверность 1) [B4B61172], AccurateRip вернул [F0C1B284] (AR v2)
Трек 6 : извлечено точно (доверие 1) [22B62BFC] (AR v1)
Трек 7 : извлечено точно (доверие 1) [5C5F9293] (AR v1)
Трек 8 : извлечено точно (доверие 1) [0DDFD698] (AR v1)
Трек 9 : извлечено точно (доверие 1) [629DA389] (AR v1)
Трек 10 : извлечено точно (доверие 1) [E4DE3D7F] (AR v1)
Трек 11 : извлечено точно (доверие 1) [A4B25609] (AR v1)
Трек 12 : извлечено точно (доверие 1) [4340A176] (AR v1)
Трек 13 : извлечено точно (доверие 1) [9D6343DD] (AR v1)
Трек 14 : извлечено точно (доверие 1) [1922B41F] (AR v1)
13 трек(и) скопированы точно
1 трек(и) не удалось проверить на точность
Некоторые треки не прошли проверку на точность
Конец отчёта
==== Контрольная сумма отчёта E867DD46C770176933CEB3503B10565233470500AD1A98F844EC73D0D7F1F6FB ====

Спектр

Тривалість: 01:12:04
Бітрейт: 793 кб/с
Мова: українська (окрім 2, 4, 11, 13 - відсутня)
Тривалість: 05:11:09
Мова: українська
Аудіо-кодек: FLAC
Бітрейт: 552-825 кб/с
Джерело: власні ріпи власних CD

Додаткова інформація

Гурт «Хорея Козацька» виник у 2005 році у Києві. Його назва походить від назви музичної пам’ятки «Horea kozacky», що заховалась в клавірній табулатурі 1640 року і зберігається в музичному архіві Братислави (Словакія). Гурт виконує музику Руси-України різних епох – Середньовіччя, Ренесансу, бароко, класицизму, романтизму та окремі твори ХХ ст., доречно демонструючи пам’ятки української культури від монодії до неоромансу. Пріоритетними для гурту є дослідження та виконання епічної традиції – епічних жанрів музичної та літературної спадщини. Тому вельми часто концерт «Хореї Козацької» перетворюється на довготривалу музичну подорож, що занурює слухачів в світ староденних подій, лицарського епосу і розвинених в ньому морально-етичних тем, що давали натхнення і викликали захоплення в українських та європейських письменників, мистців і фольклористів.
Якщо Ви справді бажаєте підтримати українське - після прослуховування, якщо музика вам сподобалась, придбайте ліцензійний диск. Підтримаймо вітчизняних виконавців!

Anonymous

Опублікувати 14-Чер-2022 21:11

[Цитувати]

Czeremszyna - „...” (2000) [WV] | Folk Стиль: Folk
Країна, місто: Польща, Черемха
Сайти: Офіційний сайт
Видавець: гурт
Виконавці:
Barbara Kuzub-Samosiuk - акордеон, словацька фуяра, вокал
Mirosław Samosiuk - балалайка басова, вокал
Joanna Grabowska - вокал
Magdalena Kowalska - сопілки, вокал
Maria Musiuk - вокал
Magdalena Zinkow-Antoniuk - перкусія, вокал
Marek Ławreszuk - скрипка
Romuald Rakowski - перкусія
Krzysztof Sawicki - гітара, мандоліна
Пісні:
    01. Oj smereko
    02. Wisyt jabko
    03. Oj na hory dwa dubki
    04. Horiła sosna
    05. Tecze woda
    06. Czerez pole
    07. Wysyłała maty
    08. Czamuż nam nie pieć
    09. Zabawa
    10. Cwite tereń

log

Exact Audio Copy V1.0 beta 1 from 15. November 2010
EAC extraction logfile from 2. May 2015, 0:01
Czeremszyna / ...
Used drive : HL-DT-STDVDRAM GSA-T20N Adapter: 0 ID: 0
Read mode : Secure
Utilize accurate stream : Yes
Defeat audio cache : Yes
Make use of C2 pointers : No
Read offset correction : 667
Overread into Lead-In and Lead-Out : No
Fill up missing offset samples with silence : Yes
Delete leading and trailing silent blocks : No
Null samples used in CRC calculations : Yes
Used interface : Native Win32 interface for Win NT & 2000
Used output format : User Defined Encoder
Selected bitrate : 896 kBit/s
Quality : High
Add ID3 tag : No
Command line compressor : C:\Program Files\Exact Audio Copy\wavpack.exe
Additional command line options : -hlm %s
TOC of the extracted CD
Track | Start | Length | Start sector | End sector
---------------------------------------------------------
1 | 0:00.00 | 3:35.70 | 0 | 16194
2 | 3:35.70 | 2:42.57 | 16195 | 28401
3 | 6:18.52 | 5:34.45 | 28402 | 53496
4 | 11:53.22 | 6:01.50 | 53497 | 80621
5 | 17:54.72 | 3:30.53 | 80622 | 96424
6 | 21:25.50 | 5:42.02 | 96425 | 122076
7 | 27:07.52 | 4:24.53 | 122077 | 141929
8 | 31:32.30 | 3:52.42 | 141930 | 159371
9 | 35:24.72 | 5:03.58 | 159372 | 182154
10 | 40:28.55 | 6:02.12 | 182155 | 209316
Range status and errors
Selected range
Filename D:\Czeremszyna\Czeremszyna - ....wav
Peak level 100.0 %
Extraction speed 0.5 X
Range quality 100.0 %
Test CRC 2508FD15
Copy CRC 2508FD15
Copy OK
No errors occurred
AccurateRip summary
Track 1 cannot be verified as accurate (confidence 1) [3DDAFABE], AccurateRip returned [CBC39DAE]
Track 2 cannot be verified as accurate (confidence 1) [85C32C7B], AccurateRip returned [6E2FD783]
Track 3 cannot be verified as accurate (confidence 1) [31453760], AccurateRip returned [D1A9DB61]
Track 4 cannot be verified as accurate (confidence 1) [D1628D6D], AccurateRip returned [E59EEFA6]
Track 5 cannot be verified as accurate (confidence 1) [68A683AE], AccurateRip returned [20317F39]
Track 6 cannot be verified as accurate (confidence 1) [A2D56919], AccurateRip returned [7B910C66]
Track 7 cannot be verified as accurate (confidence 1) [A0357E74], AccurateRip returned [03E7CC0C]
Track 8 cannot be verified as accurate (confidence 1) [5640D6BC], AccurateRip returned [1540BDB7]
Track 9 cannot be verified as accurate (confidence 1) [058FA7FB], AccurateRip returned [5C59A94A]
Track 10 cannot be verified as accurate (confidence 1) [64034A7C], AccurateRip returned [9230F13C]
No tracks could be verified as accurate
You may have a different pressing from the one(s) in the database
End of status report
==== Log checksum B83D9F69CFCD907E0B815A90B44F2AB2A3E7A5324EB61B4D70C564EA7E71FF47 ====
Тривалість: 00:46:31
Мова: українська, білоруська (8)
Аудіо-кодек: WavPack
Бітрейт: 959 кб/с
Джерело: нетлабЯкщо Ви справді бажаєте підтримати українське - після прослуховування, якщо музика вам сподобалась,
придбайте ліцензійний диск.
Підтримаймо вітчизняних виконавців!

Anonymous

Опублікувати 14-Чер-2022 21:11

[Цитувати]

Джазова фіра - Додому на свята (2009) [FLAC] | Folk / Jazz Стиль: Folk Jazz
Країна, місто: Україна, Тернопіль
Сайти: Офіційний сайт
Видавець: "Stepfira", Тернопіль
Виконавці:
Ігор Марущак - ударні інструменти,
Сергій Родько - гітара,
Костянтин Тараненко - гітара,
Анатолій Адамовський - саксофон,
Володимир Каськів - духові народні інструменти,
Дмитро Макух - бас-гітара, труба,
Сергій Степанів - клавішні
Ірина Музика - вокал,
Василько Степанів - вокал,
Софійка Марущак - бек-вокал.
Пісні:
    01.Пречиста Діва - 03:26
    02.В місті Вифлеємі - 03:39
    03.Там за горою - 03:26
    04.Бідний я - 02:29
    05.Свята ніч - 04:49
    06.Ганнуся - 02:02
    07.Господареньку - 05:04
    08.Красная панна - 03:42
    09.На свят-вечір - 03:56
    10.В Вифлеємі днесь Марія - 04:19
    11.Ялиночка - 02:42
    Відео:
    12.На горі корчма

Відео&#58; На горі корчма

Родинний гурт «Великодні зернятка»
Жіночий вокальний ансамбль с.Зелена, що на Тернопільщині
Режисер кліпу Олег Нищота.
Тривалість: 00:02:09
Якість: BDRip
Кодек: MPEG Video
Розмір кадру: 720 x 576
Бітрейт: 4751 кб/с
Аудіо:
Мова: українська
Кодек: MPEG Audio
Бітрейт: 128 кб/с
Скріншоти:
Тривалість: 00:39:39
Мова: українська
Аудіо-кодек: FLAC
Бітрейт: 722-990 кб/с
Джерело: власний ріп
Додаткова інформація:Є час в році, коли відкладаємо швидкоплинне сучасне життя і згадуємо про святість - рідний дім. Цей час - Різдво. Споминами линемо в дитинство. Ходять діти колядувати. Тато, вінчуючи, заносить дідух до хати, а мама пече пампушки, що пахнуть на цілий світ, і всі разом, родиною, молимося перед Святою вечерею...
А може, хто і не мав ніколи таких спогадів, лиш читав про це дійство або чув від інших. А може, хто не має до кого поїхати на свята, бо вже і дому того нема... Не сумуйте, сьогодні родинна радість сповнить Вашу оселю, світло Різдвяної зірки знайде Вас. Вмикайте - і святкуйте. Завітайте з нами додому на свята.
Ми ж, побувавши в с. Зелена на Тернопільщині, трохи колядок вам привезли від отчого порогу в дарунок. Сьогодні виконуємо їх для Вас, додаючи власних музичних вподобань і, водночас, зберігаючи народні шедеври неторканими.
Дякуємо усім, хто долучився до виходу цього альбому у світ!
Якщо Ви справді бажаєте підтримати українське - після прослуховування, якщо музика вам сподобалась, придбайте ліцензійний диск. Підтримаймо вітчизняних виконавців!

Anonymous

Опублікувати 14-Чер-2022 21:11

[Цитувати]

Древо, Отава, Володар, Дике Поле, Гуртоправці - Зберімося, роде... частина 2 (2005) [FLAC] | Folk Стиль: Folk
Країна, місто: Україна, Київ-Кіровоград
Сайти: Офіційний сайт
Видавець: "Оберіг ХХІ"

Виконавці

1. Євген Єфремов
2. Ірина Клименко
3. Ганна Коропниченко
4. Олена Гончаренко
5. Олександр Терещенко
6. Наталя Терещенко
7. Лера Берг
8. Олег Бут
9. Леся Васехо
10. Роман Єненко
11. Настя Іщенко
12. Сусанна Карпенко
13. Ольга Котельникова
14. Катерина Крижанівська
15. Олена Крута
16. Олена Копєйкіна
17. Мар`яна Мархель
18. Сергій Охрімчук
19. Ганна Охрімчук
20. Роман Покотило
21. Ольга Полєха
22. Фросина Проценко
23. Наталя Сербіна
24. Маргарита Скаженик
25. Тетяна Сопілка
26. Олексадра Стражник
27. Валерій Ступницький
28. Костик Товстуха
29. Петро Товстуха
30. Олена Шевчук

Пісні

    01. Ой Свириде-Свиридочку (балада)
    02. Ой з-за гори місяць світить (щедрівка)
    03. Там у світі над землею (колядка)
    04. Ой знаю-знаю (щедрівка)
    05. Ой давно я давно у батька була (балада)
    06. Ой у полі грушка (веснянка)
    07. Ой у полі криниченька (лірична)
    08. Ой Масляна-Масляна (масницька)
    09. Я в неділю народився (масницька)
    10. Ой рябая курка (веснянка)
    11. Ходила Тетяна по ярмарку (жартівлива)
    12. Ой у полі билина стояла (балада)
    13. У місті журина (балада)
    14. Да орав милий йувосені (лірична)
    15. Служила Настя в пана (балада)
    16. Покочу я тарєлочку (веснянка)
    17. Ой сухий дубе (балада)
    18. Що купався Іван (купальска)
    19. Ой на Йвана на Купайлого (купальська)
    20. Косарі косять (приурочена до весни)
    21. Синє йозеро розлєгаєтса (веснянка)
    22. Що я в батька да на йодході (весільна)
    23. Ой паля-паля-палямі (весільна)
    24. Чого, святкове, забавілісь (весільна)
    25. Копав-копав криниченьку (лірична)
    26. Краков'як з приспівками (танець)
    27. Зберімося, роде (родинно-обрядова)

EAC log

Exact Audio Copy V1.0 beta 3 from 29. August 2011
Отчёт EAC об извлечении, выполненном 8. января 2012, 21:32
Древо, Отава, Володар, Дике Поле, Гуртоправці / Зберімося, роде (ч. 2)
Дисковод: PHILIPS SPD2519T Adapter: 2 ID: 0
Режим чтения : Достоверность
Использование точного потока : Да
Отключение кэша аудио : Да
Использование указателей C2 : Нет
Коррекция смещения при чтении : 6
Способность читать области Lead-in и Lead-out : Нет
Заполнение пропущенных сэмплов тишиной : Да
Удаление блоков с тишиной в начале и конце : Нет
При вычислениях CRC использовались нулевые сэмплы : Да
Интерфейс : Встроенный Win32-интерфейс для Win NT/2000
Выходной формат : Пользовательский кодировщик
Выбранный битрейт : 1024 kBit/s
Качество : Высокий
Добавление ID3-тега : Нет
Утилита сжатия : D:\soft_2\EAC\Exact Audio Copy\Flac\flac.exe
Дополнительные параметры : -V -8 -T "Date=%year%" -T "Genre=%genre%" %source%
TOC извлечённого CD
Трек | Старт | Длительность | Начальный сектор | Конечный сектор
---------------------------------------------------------------------
1 | 0:00.00 | 5:03.20 | 0 | 22744
2 | 5:03.20 | 0:56.73 | 22745 | 27017
3 | 6:00.18 | 2:50.40 | 27018 | 39807
4 | 8:50.58 | 1:03.27 | 39808 | 44559
5 | 9:54.10 | 2:35.53 | 44560 | 56237
6 | 12:29.63 | 2:08.36 | 56238 | 65873
7 | 14:38.24 | 3:07.62 | 65874 | 79960
8 | 17:46.11 | 0:40.70 | 79961 | 83030
9 | 18:27.06 | 0:33.20 | 83031 | 85525
10 | 19:00.26 | 1:00.08 | 85526 | 90033
11 | 20:00.34 | 1:53.03 | 90034 | 98511
12 | 21:53.37 | 5:27.59 | 98512 | 123095
13 | 27:21.21 | 3:05.45 | 123096 | 137015
14 | 30:26.66 | 4:42.58 | 137016 | 158223
15 | 35:09.49 | 4:09.05 | 158224 | 176903
16 | 39:18.54 | 1:17.12 | 176904 | 182690
17 | 40:35.66 | 4:13.10 | 182691 | 201675
18 | 44:49.01 | 1:44.01 | 201676 | 209476
19 | 46:33.02 | 1:31.57 | 209477 | 216358
20 | 48:04.59 | 2:32.13 | 216359 | 227771
21 | 50:36.72 | 1:53.04 | 227772 | 236250
22 | 52:30.01 | 2:54.55 | 236251 | 249355
23 | 55:24.56 | 4:23.15 | 249356 | 269095
24 | 59:47.71 | 1:37.30 | 269096 | 276400
25 | 61:25.26 | 3:39.18 | 276401 | 292843
26 | 65:04.44 | 1:37.58 | 292844 | 300176
27 | 66:42.27 | 1:56.00 | 300177 | 308876
Характеристики диапазона извлечения и сообщения об ошибках
Выбранный диапазон
Имя файла E:\Музіка!\from EAC\Древо, Отава, Володар, Дике Поле, Гуртоправці - Зберімося, роде (ч. 2).wav
Пиковый уровень 100.0 %
Скорость извлечения 7.7 X
Качество диапазона 100.0 %
CRC теста B1DD4062
CRC копии B1DD4062
Копирование... OK
Ошибок не произошло
Конец отчёта
==== Контрольная сумма отчёта D8041A910F8C7E3C0FF1F2AC6FC47A11A3C22F7FD10DD97ACD6BA22ABAE25B6C ====

Спектр

Тривалість: 01:08:38
Мова: українська
Аудіо-кодек: FLAC
Бітрейт: 692 кб/с
Джерело: власний ріп власного CD

Додаткова інформація

Цей запис – щось настільки правильне, вірне, чесне, що його ніяк не можна лишити поза увагою. Кажу це як людина, яка, зазвичай, не приділяє етнічній музиці надто багато часу. Але в даному випадку диск містить таку чистоту, яку може відчути і такий, як я, пересічний слухач. Тому рекомендую послухати альбом всім, без винятку. А для більш уважних слухачів скажу, що це продовження проекту, першим виданням котрого став альбом "Володар, відчиняй ворота!". У проекті приймають участь, вочевидь, одні з найкращих гуртів цього напрямку – Древо, Отава, Володар, Дике поле, Гуртоправці. Це видання представляє і специфіку співу п’яти гуртів, і експериментальні міжансамблеві проекти. Якщо ж знати, що тут музикують не просто колеги, а давні друзі й однодумці, стає зрозумілим, що і результат є чимось більшим, ніж просто сума складових. Втім, цього не треба навіть розуміти – тому що можна відчути. Легко. Чисто. Впевнено. Для цього, мені здається, не потрібно навіть бути українцем – достатньо бути просто людиною. Уважною. В цих голосах і мелодіях – справжня магія, у якої немає кордонів ні в часі, ні в просторі.
Антон Йожик Лейба
Якщо Ви справді бажаєте підтримати українське - після прослуховування, якщо музика вам сподобалась, придбайте ліцензійний диск. Підтримаймо вітчизняних виконавців!

Anonymous

Опублікувати 14-Чер-2022 21:11

[Цитувати]

Дике Поле - Довгі пісні передстепової України. Проект "Моя Україна. Берви" (2010) [FLAC] | Folk Стиль: Ethno Folk
Країна, місто: Україна, Кіровоград
Видавець: "Арт Екзистенція", "Арт Велес"
Пісні:
    01 На жовтісініькім пісочку 05:06
    02 Вітер повіва 04:24
    03 Та бодай ти, степовая могила, запала 04:18
    04 Ой у Ростові та ще й в городі 05:08
    05 Зволнувалася та на морі погода 06:02
    06 А славний город Лебедин 03:53
    07 Ой то з-за гори та ще й з-за Лиману 03:31
    08 Ой од саду та й до моря битая дорога 04:26
    09 Ой сон, мати, ой сон, мати 03:01
    10 Ой сади ж мої, сади 04:03
    11 Ой упав сніжок та й на бережок 03:47
    12 Ой піду я в ліс по дрова 06:02
    13 Ходив-блудив привдалий молодчик 02:57
    14 Ой сербіне, сербіночку 09:20
    15 Ай сонце сходе, а я журюся 04:25

EAC log

Exact Audio Copy V1.0 beta 3 from 29. August 2011
Отчёт EAC об извлечении, выполненном 21. декабря 2011, 2:29
Дике Поле / Довгі пісні передстепової України
Дисковод: PHILIPS SPD2519T Adapter: 2 ID: 0
Режим чтения : Достоверность
Использование точного потока : Да
Отключение кэша аудио : Да
Использование указателей C2 : Нет
Коррекция смещения при чтении : 6
Способность читать области Lead-in и Lead-out : Нет
Заполнение пропущенных сэмплов тишиной : Да
Удаление блоков с тишиной в начале и конце : Нет
При вычислениях CRC использовались нулевые сэмплы : Да
Интерфейс : Встроенный Win32-интерфейс для Win NT/2000
Выходной формат : Пользовательский кодировщик
Выбранный битрейт : 1024 kBit/s
Качество : Высокий
Добавление ID3-тега : Нет
Утилита сжатия : D:\soft_2\EAC\Exact Audio Copy\Flac\flac.exe
Дополнительные параметры : -V -8 -T "Date=%year%" -T "Genre=%genre%" %source%
TOC извлечённого CD
Трек | Старт | Длительность | Начальный сектор | Конечный сектор
---------------------------------------------------------------------
1 | 0:00.00 | 5:08.33 | 0 | 23132
2 | 5:08.33 | 4:26.31 | 23133 | 43113
3 | 9:34.64 | 4:20.48 | 43114 | 62661
4 | 13:55.37 | 5:10.41 | 62662 | 85952
5 | 19:06.03 | 6:04.18 | 85953 | 113270
6 | 25:10.21 | 3:55.09 | 113271 | 130904
7 | 29:05.30 | 3:33.51 | 130905 | 146930
8 | 32:39.06 | 4:28.72 | 146931 | 167102
9 | 37:08.03 | 3:03.32 | 167103 | 180859
10 | 40:11.35 | 4:05.46 | 180860 | 199280
11 | 44:17.06 | 3:49.48 | 199281 | 216503
12 | 48:06.54 | 6:04.30 | 216504 | 243833
13 | 54:11.09 | 2:59.57 | 243834 | 257315
14 | 57:10.66 | 9:22.15 | 257316 | 299480
15 | 66:33.06 | 4:25.26 | 299481 | 319381
Характеристики диапазона извлечения и сообщения об ошибках
Выбранный диапазон
Имя файла E:\Музіка!\from EAC\Дике Поле - Довгі пісні передстепової України.wav
Пиковый уровень 89.3 %
Скорость извлечения 8.1 X
Качество диапазона 100.0 %
CRC теста 990E397B
CRC копии 990E397B
Копирование... OK
Ошибок не произошло
Конец отчёта
==== Контрольная сумма отчёта 13CAA8A103A4B74C9AB85CD48D983BAB2AA0B2030AE868822DF0C093904F5845 ====
Тривалість: 01:10:30
Мова: українська
Аудіо-кодек: FLAC
Бітрейт: 694 кб/с
Джерело: власний ріп власного CD

Додаткова інформація

ДИКЕ ПОЛЕ (м. Кіровоград). Фольклорний ансамбль, народжений 1999 року в м. Кіровоград, Центральна Україна. Батьками гурту є етномузикологи Наталя та Олександр Терещенки. "Дике поле" займається вивченням традиційної манери та техніки співу, організовує фольклорні експедиції (спілкування з носіями народномузичної традиції - мешканцями українських сіл Кіровоградської області, запис музичних творів на магнітну стрічку). Кредо ансамблю - відношення до фольклору як до розвиненої самобутньої багатовікової культури, неприпустимість жодних обробок, "покращень" фольклорного першоджерела задля досягнення зовнішніх сценічних ефектів, збереження неповторного колориту місцевої традиції, не механічне копіювання, а органічне живе засвоєння традиції, своєрідна спроба її наслідування. Досліджувана територія - передстепові та степові землі Правобережної України між Дніпром та Синюхою (на польських картах ХVII ст. DZIKIE POLIE), Східне Поділля. Повний склад ансамблю понад 20 осіб віком від 13 до 45 років, серед них - етномузикознавці, викладачі та студенти вищих і середніх музичних навчальних закладів, психолог, художник, школярі. Репертуар - уся жанрова палітра регіону: обрядові та побутові пісні, ігри, хороводи, танці. "Дике поле" - це одночасно культурно-мистецьке об'єднання, науково-дослідна лабораторія, творча майстерня, неформальний навчальний заклад, а також велике коло добрих друзів.
Якщо Ви справді бажаєте підтримати українське - після прослуховування, якщо музика вам сподобалась, придбайте ліцензійний диск. Підтримаймо вітчизняних виконавців!
 

Поточний час: 04-Лип 20:56

Часовий пояс: UTC ± 0