Пошук знайшов 151 збігів

Автор Повідомлення

Anonymous

Опублікувати 14-Чер-2022 20:45

[Цитувати]

VA - Lviv: 100 Years of Music (1993) [FLAC, TapeRip] | Classical Стиль: Classic
Країна, місто: Україна, Львів
Видавець: Yevshan CYFP 1104
Виконавці:
Валерій Буймістер: баритон, Богдан Каськів: скрипка, Юрій Ланюк: віолончель, Анна Климашівська: фортепіано, Мирослав Скорик: фортепіано.
Музика:
    01. Trio for Violin, Cello & Piano: I. Allegro con moto, ma non troppo (08:46)
    — муз. Нестор Нижанківський
    02. Trio for Violin, Cello & Piano: II. Tempo guisto rubato con dolore (04:52)
    — муз. Нестор Нижанківський
    03. Trio for Violin, Cello & Piano: III. Allegro con brio (07:55)
    — муз. Нестор Нижанківський
    04. Recitatives & Rondo for Violin, Cello & Piano: I. Recitative (03:01)
    — муз. Мирослав Скорик
    05. Recitatives & Rondo for Violin, Cello & Piano: II. Rondo (04:59)
    — муз. Мирослав Скорик
    06. Recitatives & Rondo for Violin, Cello & Piano: III. Recitative (03:29)
    — муз. Мирослав Скорик
    07. Ukrainian Melody (03:23)
    — муз. Мирослав Скорик
    08. Passacaglia & Scherzo for Piano: I. Passacaglia (06:42)
    — муз. Микола Колесса
    09. Passacaglia & Scherzo for Piano: II. Scherzo (04:16)
    — муз. Микола Колесса
    10. За байраком байрак (04:30)
    — муз. Станіслав Людкевич, сл. Тарас Шевченко
    11. Місяцю князю (05:02)
    — муз. Василь Барвінський
    12. Ой, ти дівчино (06:28)
    — муз. Анатолій Кос-Анатольський
    13. Withered Leaves: I. Although the Impassable Wall (02:57)
    — муз. Ігор Соневицький
    14. Withered Leaves: II. Your Eyes (01:56)
    — муз. Ігор Соневицький
    15. Withered Leaves: III. Even Though You Will Not Blossom Like a Flower (03:18)
    — муз. Ігор Соневицький
Тривалість: 01:11:40
Мова: українська
Аудіо-кодек: FLAC
Бітрейт: ~ 650 кб/с
Джерело: Ріп з власної аудіокасети (Yevshan CYFP 1104)
Додаткова інформація:
Концерт "Львів: 100 років музики" з квінтетом музикантів з України - Юрій Ланюк, віолончель; Богдан Каськів, скрипка; Анна Климашівська, фортепіано; та Валерій Буймiстер, баритон — під керівництвом композитора Мирослава Скорика, був представлений в рамках концертного туру групи США та Канади з 22 серпня по 5 жовтня 1993 року. Концертна програма, присвячена роботам львівських композиторів останніх 100 років — твори Нестора Нижанківського, Василя Барвінського, Станіслава Людкевича, Анатолія Кос-Анатольського, Миколи Колесси, Ігоря Соневицького, та Мирослава Скорика.
MP3 (lossy) версія на Толоці тут.

Anonymous

Опублікувати 14-Чер-2022 20:45

[Цитувати]

Endless Melancholy | Дискографія (28 альбомiв) (2011-2017) [FLAC] | Instrumental Стиль: Instrumental
Країна, місто: Україна, Київ
Видавець: гурт (крім альбому "A Quiet Recollection" - 1631 Recordings i *購入特典:1631 Recordings特製サンプラ)
Виконавці:
Олексій Сакевич
Альбоми:

2011 - Blue Mountains (web)

Треклист:
01. Blue Mountains [03:07]
Тривалість: 00:03:07
Мова: відсутня (інструментальні композиції)
Бітрейт: 420 кб/с

Спектрограми

2011 - Memories (web)

Треклист:
01. With The Last Fallen Leaf [02:34]
02. These Waters Remember Our Smiles [03:38]
03. Childhood [02:32]
04. Fairytale [02:26]
05. Regrets [01:55]
06. Secrets Long Forgotten [04:01]
07. Wisdom [02:48]
08. Till The End Of Everything [03:57]
Тривалість: 00:23:51
Мова: відсутня (інструментальні композиції)
Бітрейт: 423-647 кб/с

2012 - A Timeless Journey To The Setting Sun (web)

Треклист:
01. A Timeless Journey To The Setting Sun [7:38]
Тривалість: 00:07:38
Мова: відсутня (інструментальні композиції)
Бітрейт: 565 кб/с

Лог якостi

AUDIOCHECKER v2.0 beta (build 457) - by Dester
~~~~~~~~~~~~~~~~~~~~~~~~~~~~~~~~~~
Started at: вторник, 03. 03. 2015. - 22:10.28
1 file found
1 -===- F:\Мои Раздачи\Endless Melancholy\Endless Melancholy - 2012 - A Timeless Journey To The Setting Sun (web)\01 - A Timeless Journey To The Setting Sun.flac
Error while extracting! Check your rights, free some space if needed and ensure the file is valid.
Finished at: вторник, 03. 03. 2015. - 22:10.30 (operation time: 0:00.01)

Спектрограми

2012 - Before, After (web)

Треклист:
01. A Minute For The Beginning [01:00]
02. All Farewells Aren't Sudden [05:30]
03. A Minute In Between [01:00]
04. You Are The Moonlight [06:12]
05. A Minute For The End [01:00]
06. Carpe Diem [06:13]
Тривалість: 00:20:59
Мова: відсутня (інструментальні композиції)
Бітрейт: 565-853 кб/с

Лог якостi

AUDIOCHECKER v2.0 beta (build 457) - by Dester
Started at: вторник, 03. 03. 2015. - 22:11.04
6 files found
1 -===- F:\Мои Раздачи\Endless Melancholy\Endless Melancholy - 2012 - Before, After (web)\01 - A Minute For The Beginning.flac
Error while extracting! Check your rights, free some space if needed and ensure the file is valid.
2 -===- F:\Мои Раздачи\Endless Melancholy\Endless Melancholy - 2012 - Before, After (web)\02 - All Farewells Aren't Sudden.flac
Error while extracting! Check your rights, free some space if needed and ensure the file is valid.
3 -===- F:\Мои Раздачи\Endless Melancholy\Endless Melancholy - 2012 - Before, After (web)\03 - A Minute In Between.flac
Extracted successfully
Conclusion: unknown error during analyzing
Tempfile successfully deleted.
4 -===- F:\Мои Раздачи\Endless Melancholy\Endless Melancholy - 2012 - Before, After (web)\04 - You Are The Moonlight.flac
Error while extracting! Check your rights, free some space if needed and ensure the file is valid.
5 -===- F:\Мои Раздачи\Endless Melancholy\Endless Melancholy - 2012 - Before, After (web)\05 - A Minute For The End.flac
Error while extracting! Check your rights, free some space if needed and ensure the file is valid.
6 -===- F:\Мои Раздачи\Endless Melancholy\Endless Melancholy - 2012 - Before, After (web)\06 - Carpe Diem.flac
Error while extracting! Check your rights, free some space if needed and ensure the file is valid.
Finished at: вторник, 03. 03. 2015. - 22:11.07 (operation time: 0:00.02)

Спектрограми

2012 - Music For Quiet Mornings (web)

Треклист:
01. Birth (An Orchestra Was Hired To Create This Track) [00:53]
02. Silent Dawn, Grey Twilight [04:00]
03. Quiet [04:06]
04. A Song For Watching Snowfalls [03:32]
05. Simple Things [03:19]
06. Light [06:04]
07. A Song For The Morning Star [05:10]
08. A Song For Dreaming [05:29]
09. Mélancolie [04:16]
10. Fading (We Are All Slowly) [01:01]
Тривалість: 00:37:54
Мова: відсутня (інструментальні композиції)
Бітрейт: 565-853 кб/с

Спектрограми

2012 - You Are The Moonlight (web)

Треклист:
01. You Are The Moonlight [4:18]
Тривалість: 00:04:18
Мова: відсутня (інструментальні композиції)
Бітрейт: 1193 кб/с

Динамiчний дiапазон

foobar2000 1.3.9 / Dynamic Range Meter 1.1.1
log date: 2016-04-03 16:26:10
--------------------------------------------------------------------------------
Statistics for: 01-You Are The Moonlight
Number of samples: 11378145
Duration: 4:18
--------------------------------------------------------------------------------
Left Right
Peak Value: -0.30 dB --- -0.31 dB
Avg RMS: -8.34 dB --- -9.67 dB
DR channel: 5.33 dB --- 6.05 dB
--------------------------------------------------------------------------------
Official DR Value: DR6
Samplerate: 44100 Hz
Channels: 2
Bits per sample: 24
Bitrate: 1193 kbps
Codec: FLAC
================================================================================

Спектрограми

2013 - Autumn Outtakes (web)

Треклист:
01. Old Photographs [06:40]
02. Found Letters [03:17]
03. You Don't See Darkness When You Close Your Eyes [01:53]
04. Celestial Pathways [08:30]
Тривалість: 00:20:21
Мова: відсутня (інструментальні композиції)
Бітрейт: 565-853 кб/с

Лог якостi

AUDIOCHECKER v2.0 beta (build 457)
~~~~~~~~~~~~~~~~~~~~~~~~~~~~~~~~~~
Started at: вторник, 03. 03. 2015. - 22:14.27
4 files found
1 -===- F:\Мои Раздачи\Endless Melancholy\Endless Melancholy - 2013 - Autumn Outtakes (web)\01 - Old Photographs.flac
Error while extracting! Check your rights, free some space if needed and ensure the file is valid.
2 -===- F:\Мои Раздачи\Endless Melancholy\Endless Melancholy - 2013 - Autumn Outtakes (web)\02 - Found Letters.flac
Error while extracting! Check your rights, free some space if needed and ensure the file is valid.
3 -===- F:\Мои Раздачи\Endless Melancholy\Endless Melancholy - 2013 - Autumn Outtakes (web)\03 - You Don't See Darkness When You Close Your Eyes.flac
Error while extracting! Check your rights, free some space if needed and ensure the file is valid.
4 -===- F:\Мои Раздачи\Endless Melancholy\Endless Melancholy - 2013 - Autumn Outtakes (web)\04 - Celestial Pathways.flac
Error while extracting! Check your rights, free some space if needed and ensure the file is valid.
Finished at: вторник, 03. 03. 2015. - 22:14.28 (operation time: 0:00.01)

Спектрограми

2013 - Epilogue (web)

Тривалість: 00:49:11
Треклист:
01. Blossoms (feat. Lights Dim) [06:22]
02. We Have Met Before [02:38]
03. Seven Autumns Away (feat. Linear Bells) [05:24]
04. As The Sun Quietly Sets And The Seashore Slowly Falls Asleep [08:21]
05. Rivers Of Time (feat. EUS) [06:30]
06. November [03:32]
07. Vanishing Whispers (feat. Creation VI) [04:57]
08. Nostalgia [04:28]
09. Epilogue [06:54]
Мова: інструментальні композиції
Аудіо-кодек: FLAC
Бітрейт: 565-853 кб/с

Спектрограми

2013 - Five Songs (web)

Треклист:
01. We Have Met Before [03:15]
02. A Place Called Home [04:00]
03. Leave [02:52]
04. Nowhere, Never [02:45]
05. Nostalgia [05:06]
Тривалість: 00:18:00
Мова: інструментальні композиції
Аудіо-кодек: FLAC
Бітрейт: 565-853 кб/с

Спектрограми

2013 - November (web)

Треклист:
01. November [3:33]
02. November (video edit) [4:05]
Тривалість: 00:07:38
Мова: інструментальні композиції
Аудіо-кодек: FLAC
Бітрейт: 565-853 кб/с

Спектрограми

2014 - Fragile (web)

Виконавці:
Олексій Сакевич - фортепіано
Анатолій Гаврилов - вiолончель
Володимир Бабутiн - вiолончель
Треклист:
01. Wherever [02:08]
02. Glory Of The Sun [06:16]
03. Little Hands [05:03]
04. Forgotten Valentines [03:50]
05. Lost [05:10]
06. Rêverie [07:03]
07. Do You Remember? [03:16]
08. Write Me A Letter [03:46]
09. You Are The Moonlight [07:32]
10. Somewhere [02:03]
Тривалість: 00:46:12
Мова: інструментальні композиції
Аудіо-кодек: FLAC
Бітрейт: 565-853 кб/с

Спектрограми

2014 - Rêverie / Broken (web)

Треклист:
01. Reverie [7:00]
02. Broken [4:25]
Тривалість: 00:11:25
Мова: інструментальні композиції
Аудіо-кодек: FLAC
Бітрейт: 565-853 кб/с

Спектрограми

2014 - Wherever (web)

Треклист:
01. Wherever [02:08]
02. Somewhere [02:03]
Тривалість: 00:04:11
Мова: інструментальні композиції
Аудіо-кодек: FLAC
Бітрейт: 565-853 кб/с

Спектрограми

2015 - Ambermixes (web)

Треклист:
01. Amber [06:38]
02. To These Amber Skies [08:09]
03. The Lost Amber (Musicformessier Remix) [04:03]
04. Amber Maze (Creation VI Remix) [07:26]
05. Journey to the Cold Amber (Ralax Remix) [04:40]
06. As They Hardened In the Sun, They Turned Into Amber (Desolate Horizons Remix) [10:31]
07. Kept in Amber (Dayin Remix) [05:08]
08. Amber Fields (A Model Kit Remix) [05:06]
09. The Reflection of Amber Within the Black Sea (SiJ Remix) [06:46]
10. Summer in Amber (Scorba Remix) [04:57]
11. Amber (Recomposed by Marco Caricola) [04:50]
Тривалість: 01:08:19
Мова: відсутня (інструментальні композиції)
Бітрейт: 635-1608 кб/с

Спектрограми

2015 - Her Name In A Language Of Stars (web)

Треклист:
01. Tiny Box of Memories [07:31]
02. Daydreaming [04:24]
03. Like Ships Without Anchors [10:21]
04. Her Name in a Language of Stars [05:42]
05. Their Hearts Erased [03:58]
06. Burial, When the Sun Sets [15:11]
07. Their Hearts Erased (Benoit Pioulard Remix) [04:40]
08. Tiny Box of Memories (Wil Bolton Remix) [08:42]
09. Their Hearts Erased (Desolate Horizons Remix) [02:50]
Тривалість: 01:03:16
Мова: відсутня (інструментальні композиції)
Бітрейт: 565-853 кб/с

2016 - Winter Outtakes

Треклист:
01. Shine, Always [05:44]
02. When I'm With You [03:48]
03. A Neverending Descent [07:32]
Тривалість: 00:17:04
Мова: відсутня (інструментальні композиції)
Бітрейт: 735-813 кб/с

Desolate Horizons & Endless Melancholy - 2015 - Wide As The Golden Ocean (web)

Треклист:
01. Desolate Horizons - Deep, Quiet and Alone [10:00]
02. Endless Melancholy - Like Ships Without Anchors [10:20]
Тривалість: 00:20:20
Мова: відсутня (інструментальні композиції)
Бітрейт: 565-853 кб/с

Спектрограми

2016 - A Quiet Recollection

Треклист:
01. Leave [02:53]
02. We Have Met Before [02:41]
03. Nostalgia [04:31]
04. November (Video Edit) [04:00]
05. Unsaid [03:11]
06. Silent Dawn, Grey Twilight [03:51]
07. Vanishing Whispers (Feat. Creation VI) [05:00]
08. Amber [06:41]
09. Their Hearts Erased [04:00]
10. Burial, When The Sun Sets [15:13]
Видавець: 1631 Recordings
Тривалість: 00:52:01
Мова: відсутня (інструментальні композиції)
Бітрейт: 980 кб/с

2016 - A Quiet Recollection (Japanese Edition)

Треклист:
01. Leave (02:52)
02. Subtle (02:06)
03. Closer (02:48)
04. We Have Met Before (02:41)
05. Do You Remember? (03:16)
06. Nostalgia (04:31)
07. November (video edit) (04:00)
08. Unsaid (03:11)
09. Simple Things (03:19)
10. Silent Dawn, Grey Twilight (03:51)
11. Vanishing Whispers (feat. Creation VI) (04:59)
12. You Are The Moonlight (07:33)
Видавець: *購入特典:1631 Recordings特製サンプラーCD-R
Тривалість: 00:45:07
Мова: відсутня (інструментальні композиції)
Бітрейт: 370-677 кб/с

2016 - Subtle And Closer

Треклист:
01. Subtle [02:06]
02. Closer [02:48]
Видавець: гурт
Тривалість: 00:04:56
Мова: відсутня (інструментальні композиції)
Бітрейт: 546-611 кб/с

2016 - Like Ships Without Anchors

Треклист:
1. Like Ships Without Anchors - 08:07
Видавець: гурт
Тривалість: 00:08:07
Мова: відсутня (інструментальні композиції)
Бітрейт: 577 кб/с

Desolate Horizons & Endless Melancholy - 2015 - Deep As The Dark Blue Sea (web)

Треклист:
01. Endless Melancholy - Still [03:59]
02. Endless Melancholy - A Giant Wave [07:16]
03. Endless Melancholy - The Air Here Is Written With You [06:28]
04. Endless Melancholy - Reflections [02:01]
05. Endless Melancholy - Like An Old Memory We Are Washed Ashore [05:54]
06. Desolate Horizons - From Whence We Came [04:21]
07. Desolate Horizons - The World Slips Away as We Dance in the Fire [05:41]
08. Desolate Horizons - Like Whispers Lost at Sea, We Soar [07:31]
09. Desolate Horizons - Your Echoes Drift Through Me Like Waves Caressing the Shores [06:01]
10. Desolate Horizons - We're Coming Home Now [03:30]
Тривалість: 00:52:35
Мова: відсутня (інструментальні композиції)
Бітрейт: 659-1600кб/с

Спектрограми

Lights Dim & Endless Melancholy - 2013 - Soft Steps EP (web)

Треклист:
01. Bed of Moss [05:06]
02. Piano no Mori [05:53]
03. As They Grow [05:01]
04. Soft Steps [03:08]
05. A piece for N [03:05]
Тривалість: 00:22:15
Мова: відсутня (інструментальні композиції)
Бітрейт: 565-853кб/с

Спектрограми

2016 - Oceanmixes (web)

Треклист:
1. Like Ships Without Anchors - 08:07
2. As The Ocean Dragged Them In (Siavash Amini Remix) - 07:08
3. Standing Still Before The Ocean (Audio Obscura Remix) - 04:49
4. Broken Ocean Mirror (Equal Stones Remix) - 05:47
5. Unto The Boundless Ocean Of Thy Beauty (Desolate Horizons Remix) - 08:10
6. The Seventh Ocean (Musicformessier Remix) - 04:06
7. Dirty Ocean (Gamardah Fungus Remix) - 07:47
Тривалість: 00:45:58
Мова: відсутня (інструментальні композиції)
Бітрейт: 577-1177 кб/с

2016 - In The Shadow Of History (web)

Треклист:
01. City Theme - 01:39
02. The Emergence - 03:22
03. Genius Loci - 04:37
04. Impermanence of History - 03:18
05. Echoes of the Past - 01:34
06. The Decay - 01:09
07. 1636 - 02:17
08. There Is No One Story - 04:22
09. End Credits - 02:38
Тривалість: 00:24:56
Мова: відсутня (інструментальні композиції)
Бітрейт: 630-733 кб/с

2016 - We Found Love (web)

Треклист:
01. We Found Love (feat. Matt Finney) - 5:02
Тривалість: 00:05:02
Мова: відсутня (інструментальні композиції)
Бітрейт: 717 кб/с

2017 - For (web)

Треклист:
01. They had wakened one morning and the world was empty - 04:36
02. "Wouldn't we be lonely?" - 02:28
03. His voice faded - 03:05
04. And he had walked her through the still and empty city streets - 04:40
Тривалість: 00:14:49
Мова: відсутня (інструментальні композиції)
Бітрейт: 894-1016 кб/с

2017 - Radiant (web)

Треклист:
01. An Invitation To Come In - 04:14
02. We Were Born From A Shooting Star - 04:39
03. Satellites - 04:28
04. I Will Never Unfollow You -05:00
05. A Colorized Memory, An Uncertain Dream Or Something - 03:20
06. Yet Another Reason To Be Still - 08:15
Тривалість: 00:29:59
Мова: відсутня (інструментальні композиції)
Бітрейт: 750-1532 кб/с
Тривалість: 12:02:04
Мова: інструментальні композиції
Аудіо-кодек: FLAC
Бітрейт: 370-1600 кб/с
Джерело: Інтернет

Anonymous

Опублікувати 14-Чер-2022 20:45

[Цитувати]

Андрій Гайдамаченко - Ностальгія (199Х) [FLAC, TapeRip] | Instrumental Стиль: Instrumental
Країна, місто: Україна
Видавець: Андрій Гайдамаченко
Виконавці:
Андрій Гайдамаченко
Пісні:
    01. Подорож у минуле
    02. Романтичний сон
    03. Ностальгія
    04. Дорога до дому
    05. Ранок в горах
    06. Паяц
    07. У вирі днів
    08. Осінь
    09. Лісовий декаданс
    10. Святковий день
Тривалість: 00:35:34
Мова: Instrumental
Аудіо-кодек: FLAC
Бітрейт: 816-980 кб/с
Джерело: ярий тверезенник, Sehrg-Gut
Додаткова інформація:Pioneer CT-335 оцифрувавЯкщо Ви справді бажаєте підтримати українське - після прослуховування, якщо музика вам сподобалась,
придбайте ліцензійний диск.
Підтримаймо вітчизняних виконавців!

Anonymous

Опублікувати 14-Чер-2022 20:45

[Цитувати]

Ліля Кобільник - Небо Майдану (2018) [FLAC] | Bard Стиль: Bard
Країна, місто: Україна, Львів
Видавець: автор
Виконавці:
Ліля Кобільник - вокал, гітара
17, 18: гітара - І. Романишин
Пісні:
    01 - Революція
    02 - Молитва Майдану
    03 - А Сотню вже зустріли небеса
    04 - Сиві печалі. Реквієм
    05 - Свічечка Майдану
    06 - Герої не вмирають
    07 - Не можу відпустити Майдан
    08 - Героям України
    09 - Болить мені
    10 - Знаєш, мамо...
    11 - Коханий мій
    12 - Якщо вас біль мій не болить
    13 - Живим я повернусь
    14 - Воєнний вальс
    15 - Війна закінчиться
    16 - Я б пригорнула кожного із вас
    17 - Колискова татка з війни
    18 - Різдвяне небо
    19 - Українська земля
Тривалість: 01:06:22
Мова: українська
Аудіо-кодек: FLAC
Бітрейт: 498-767 кб/с
Джерело: ярий тверезенник
Додаткова інформація:Диск надано Ігорем Качмариком з Дрогобича.
Якщо Ви справді бажаєте підтримати українське - після прослуховування, якщо музика вам сподобалась,
придбайте ліцензійний диск.
Підтримаймо вітчизняних виконавців!

Anonymous

Опублікувати 14-Чер-2022 20:45

[Цитувати]

Галицький духовий оркестр - Українські патріотичні гімни й марші (1990) [FLAC, TapeRip] | Instrumental Стиль: Instrumental
Країна, місто: Україна
Видавець: Кобза
Виконавці:
Галицький духовий оркестр
Пісні:
    01. За Україну
    02. Ще не вмерла Україна
    03. Січова слава
    04. Пластовий марш
    05. Симон Петлюра
    06. Гуцульський марш
    07. Перші Запорожці
    08. Калина пам'яті
    09. Під Українським стягом
    10. Молодь для Христа
    11. Гімн Всемогутнього Бога
    12. Молодь для Христа
    13. Степан Бандера
    14. Ще не час
    15. Марш Cоколів
    16. За нашу рідну землю
    17. Слава, слава
Тривалість: 00:45:55
Мова: відсутня
Аудіо-кодек: FLAC
Бітрейт: 714-816 кб/с
Джерело: Sehrg-Gut, ярий тверезенник
Додаткова інформація:Pioneer CT-335 Якщо Ви справді бажаєте підтримати українське - після прослуховування, якщо музика вам сподобалась,
придбайте ліцензійний диск.
Підтримаймо вітчизняних виконавців!

Anonymous

Опублікувати 14-Чер-2022 20:45

[Цитувати]

VA - Органна музика львівських композиторів XVI-XX ст. (2008) [FLAC] | Classical

обкладинка

Стиль: Classic
Країна, місто: Україна, Львів
Сайти: Офіційний сайт
Видавець: Укрмюзік
Виконавці:
Самуїл Дайч, архівний запис, 1982
Валерій Коростельов, 2007
Надія Величко, 2007-2008
Звукорежисер Богдан Стефура
Пісні:
    01 - Motet "Regurgente Cristo Domino", Kyrie з "Missa Paschalis" (Марцин Леополіта)
    02 - Етюд №5 (Тадеуш Махль)
    03 - Чотири твори для органа (Тадеуш Маєрський)
    04 - Канцона (Мечислав Солтис)
    05 - Пасакалія (Микола Колесса)
    06 - Прелюдія і фуга (Микола Колесса)
    07 - Пасакалія (Олександр Козаренко)
    08 - Сяйво далекої зірки (Адріан Корчинський)

log

Exact Audio Copy V1.0 beta 3 from 29. August 2011
EAC extraction logfile from 20. October 2011, 10:49
Various Artists / Органна музика львівських композиторів XVI-XX ст.
Used drive : TSSTcorpCDDVDW TS-L633J Adapter: 0 ID: 1
Read mode : Secure
Utilize accurate stream : Yes
Defeat audio cache : No
Make use of C2 pointers : No
Combined read/write offset correction : 0
Overread into Lead-In and Lead-Out : No
Fill up missing offset samples with silence : Yes
Delete leading and trailing silent blocks : No
Null samples used in CRC calculations : Yes
Used interface : Native Win32 interface for Win NT & 2000
Used output format : User Defined Encoder
Selected bitrate : 768 kBit/s
Quality : High
Add ID3 tag : Yes
Command line compressor : C:\Program Files (x86)\Exact Audio Copy\FLAC\FLAC.EXE
Additional command line options : -6 -V -T "ARTIST=%artist%" -T "TITLE=%title%" -T "ALBUM=%albumtitle%" -T "DATE=%year%" -T "TRACKNUMBER=%tracknr%" -T "GENRE=%genre%" -T "COMMENT=%comment%" -T "BAND=%albuminterpret%" -T "ALBUMARTIST=%albuminterpret%" -T "COMPOSER=%composer%" %haslyrics%--tag-from-file=LYRICS="%lyricsfile%"%haslyrics% -T "DISCNUMBER=%cdnumber%" -T "TOTALDISCS=%totalcds%" -T "TOTALTRACKS=%numtracks%" %hascover%--picture="%coverfile%"%hascover% %source% -o %dest%
TOC of the extracted CD
Track | Start | Length | Start sector | End sector
---------------------------------------------------------
1 | 0:00.00 | 5:09.51 | 0 | 23225
2 | 5:09.51 | 2:46.28 | 23226 | 35703
3 | 7:56.04 | 7:37.66 | 35704 | 70044
4 | 15:33.70 | 6:43.29 | 70045 | 100298
5 | 22:17.24 | 8:09.19 | 100299 | 136992
6 | 30:26.43 | 9:34.24 | 136993 | 180066
7 | 40:00.67 | 6:45.69 | 180067 | 210510
8 | 46:46.61 | 10:01.10 | 210511 | 255595
Range status and errors
Selected range
Filename D:\audio_work\classic_share\organy\Various Artists - Органна музика львівських композиторів XVI-XX ст..wav
Peak level 97.2 %
Extraction speed 4.1 X
Range quality 99.9 %
Copy CRC 42D29E4E
Copy OK
No errors occurred
End of status report
---- CUETools DB Plugin V2.1.3
[CTDB TOCID: wBLXTU.VfALg_x73tmQP4w1I7vY-] found, Submit result: already submitted
[debcb5fb] (1/1) Accurately ripped

fooCDtect

fooCDtect - foobar2000 + auCDtect, baralgin.
auCDtect: CD records authenticity detector, version 0.8.2
Copyright (c) 2004 Oleg Berngardt. All rights reserved.
Copyright (c) 2004 Alexander Djourik. All rights reserved.
mode: 0
=======================================================
Track: 01 - Motet 'Resurgente Cristo Domino', Kyrie з 'Missa Paschalis'
Quality: CDDA, 100%
=======================================================
Track: 02 - Етюд №5
Quality: CDDA, 100%
=======================================================
Track: 03 - Чотири твори для органа
Quality: CDDA, 87%
=======================================================
Track: 04 - Канцона
Quality: CDDA, 100%
=======================================================
Track: 05 - Пасакалія
Quality: MPEG, 92%
=======================================================
Track: 06 - Прелюдія і фуга
Quality: CDDA, 100%
=======================================================
Track: 07 - Пасакалія
Quality: CDDA, 100%
=======================================================
Track: 08 - Сяйво далекої зірки
Quality: CDDA, 86%
=======================================================
Тривалість: 00:56:48
Мова: відсутня
Аудіо-кодек: FLAC
Бітрейт: 570 кб/с
Джерело: intoclassics (автор efandy)
Додаткова інформація:Звучання "короля інструментів" завжди налаштовує на святковий, урочистий, піднесений, а часто й медитативний лад. Тим паче, коли орган - рідний, львівський, як і композиції, записані на ньому. На цьому, чи не першому диску такого спрямування - вісім треків семи композиторів: від одного із найдавніших львівських авторів Мартина Леополіти, котрий був придворним композитором короля Сигізмунда Августа до "Світла далекої зірки" сучасника Адріана Корчинського. Звучать також "Чотири твори для органа" Тадеуша Маєрського, "Канцона" Мечислава Солтиса, твори для органа патріарха української музики Миколи Колесси, "Пасакалія" талановитого сучасного композитора Олександра Козаренка. Усе це - у виконанні Надії Величко та Валерія Коростельова на найбільшому та найкращому романтичному органі України.

Орган костелу св. М. Магдалини
(Будинку органної та камерної музики)


Орган костелу св. М.Магдалини, опус 2565, був збудований у 1936 році відомою чесько-австрійською фірмою «Rieger». Орган мав 70 регістрів (з них — 3 трасмісійних), 4 мануала, педаль. Головний пульт було встановлено біля основної частини органа на балконі. Незвичайним в органі було те, що 12 регістрів 4-го мануала — Choir — були розміщені окремо в іншому кінці залу в спеціальній шафі з лівого боку над вівтарем; мав орган і додатковий пульт управління в самому вівтарі. При грі на цій частині органа треба було відкрити вікна в кімнаті над вівтарем, а при закритих вікнах створювався ефект приглушення гучності, що дозволяло органісту полегшити супровід хору. При виконанні творів з головного пульта Choir дозволяв створювати ефект віддаленого і таємничого звучання. Велика кількість регістрів та артистичних можливостей робили цей орган придатним не тільки для служби, але і для концертних виступів.
Після другої світової війни орган перестав діяти, а на початку 60-х років приміщення костьолу передали клубу політехнічного інституту. Лише у 1968-69 роках чеська фірма «Rieger-Kloss» з міста Крнов в Північній Моравії виконала першу чергу реконструкції і він знову заграв. Замість старого фірма встановила новий пульт, відновила втрачені труби, довелось змінити розподіл регістрів між мануалами. Choir було вирішено не відновлювати, хоч збереглись шафа, повітряні канали, частина труб і додатковий пульт.
Першим і постійним органістом упродовж 20 років на цьому органі був Самуїл Дайч, викладач кафедри фортепіано Львівської консерваторії. Новий орган ств першим таким великим і якісним на Україні, і концерти видатних виконавців та львівського органіста С. Дайча завжди збирали повний зал слухачів і викликали ентузіазм.
У 1986 році концертна діяльність на органі припинилась — інструмент знову вимагав ремонту. У 1988 році фірма Rieger-Kloss здійснила другу чергу реконструкції. Тут відкрився Будинок органної та камерної музики, постійним органістом якого став Віталій Півнов. Але сталось так, що в аварійний стан прийшло само приміщення костьолу: стіни почали давати усадку і це загрожувало падінням стелі. Довелось виконувати великі зовнішні будівельні роботи.
Сьогодні цей орган залишається одним з найбільших в Україні. За звучанням він — романтичного типу з оркестральним характером, але багатий досвід фірми-будівника дозволив уникнути романтичної однобокості. Орган має 60 регістрів (та 2 трансмісійних), 4560 труб в 3 мануалах і педалі. Чудова акустика залу, вдала конструкція роблять орган одним з найкращих на Україні. Звучання повного органа відрізняється силою та величністю, а окремі регістри звучать різноманітно й артистично.
Якщо Ви справді бажаєте підтримати українське - після прослуховування, якщо музика вам сподобалась,
придбайте ліцензійний диск.
Підтримаймо вітчизняних виконавців!

Anonymous

Опублікувати 14-Чер-2022 20:45

[Цитувати]

Квартет імені Лисенка - The Lysenko Quartette (1990) [FLAC, TapeRip] | Instrumental Стиль: Instrumental
Країна, місто: Україна
Видавець: Kobza
Виконавці:
Квартет імені Лисенка
Мельодії:
    01. Allegro non tanto
    02. Adagio cantabile
    03. Menuetto. Allegretto schezando
    04. Andante cantabile
    05. Гуцульський танок
    06. Adagio. Allegro
    07. Andante cantabile
    08. Menuetto. Allegretto
    09. Molto allegro
Тривалість: 00:51:40
Мова: інструментал
Аудіо-кодек: FLAC
Бітрейт: 808-852 кб/с
Джерело: Sehrg-Gut, ярий тверезенник
Додаткова інформація:Pioneer CT-335 (без обробок)Якщо Ви справді бажаєте підтримати українське - після прослуховування, якщо музика вам сподобалась,
придбайте ліцензійний диск.
Підтримаймо вітчизняних виконавців!

Anonymous

Опублікувати 14-Чер-2022 20:45

[Цитувати]

Natalya Shkoda - Viktor Stepanovych Kosenko. Piano Music, Volume 1: Eleven Etudes in the Form of Old Dances, Op.19 (2006) [FLAC] | Classic Стиль: Classic, Piano
Країна, місто: Україна, Харків-Київ; США, Чіко
Сайти: Офіційний сайт
Видавець: Toccata Classics
Виконавці:

Наталя Шкода - фортепіано

Віктор Косенко - композитор

Віктор Степанович Косенко (*11 (23) листопада 1896, Петербург — 3 жовтня 1938, Київ) — український композитор, піаніст, педагог.
1918 року закінчив Петроградську консерваторію по класам композиції у Н. А. Соколова та фортепіано у І.С. Миклашевської. З 1918 викладав у Музичному технікумі в Житомирі (пізніше — директор Житомирського училища). В 1938 році училищу було присвоєно його ім'я. З 1929 викладав у Київському музично-драматичному інституті (з 1932 — професор). В 1934-37 працював у Київській консерваторії.В історію української музики Віктор Косенко увійшов, насамперед, як неперевершений лірик. Його вокальна, камерна і симфонічна творчість наповнена романтичними інтонаціями слов'янської музики і народної пісні.
Одному з небагатьох українських композиторів того часу — Косенкові пощастило отримати європейську музичну освіту. Його дитинство пройшло у Варшаві. Він був справді вундеркіндом: у шість років, не знаючи нот, грав на слух Патетичну сонату Бетховена. Унікальні здібності хлопчика розвивали професори Варшавської консерваторії. Музичну освіту Косенко продовжив у метрів Петербурзької консерваторії. Її тодішнім директором був відомий російський композитор Олександр Глазунов. Оцінивши обдарованість Косенка, Глазунов звільнив його від платні за навчання. У Петербурзі юний музикант зустрічався з Рахманіновим, Скрябіним. Більшу частину життя Віктор Степанович прожив у Житомирі. Тут Косенко і його друзі-музиканти створили мистецьке середовище, яке не поступалося столичному. Як згадує співачка Зоя Гайдай, їхніми слухачами були, насамперед, селяни, робітники і солдати. На життя молодий Косенко заробляв ілюструючи музикою німі фільми. Сучасники розповідають, що глядачі бігали за ним із кінотеатру в кінотеатр, щоб послухати дивовижну гру музиканта. Адже Косенко був феноменальним піаністом. Він залишив по собі десятки творів, які увійшли у золотий фонд української фортепіанної музики. Серед них Альбом дитячих п'єс, на якому зростало багато поколінь юних піаністів. Композитор прожив лише 42 роки. Уже професор Київської консерваторії, Косенко створив симфонічну «Молдавську поему», яку так і не зміг почути. Вона прозвучала лише в наші дні.
Виступав як піаніст з сольними концертами та в ансамблях. В своїй творчості, різноманітній по жанрах і переважно ліричній по характеру, В. Косенко спирався на традиції російської (П.І. Чайковський, С. В. Рахманінов, О. Скрябін) та української класики (М. В. Лисенко).
Пісні:
    01 Gavotte in D flat major - Allegro mosso
    02 Allemande in B flat minor - Moderato
    03 Menuet in G major - Allegretto
    04 Courante in E minor - Vivace
    05 Sarabande in A minor - Adagio
    06 Bourree in A major - Allegro
    07 Gavotte in B minor - Allegro moderato
    08 Rigaudon in C major - Vivace
    09 Menuet in E flat major - Allegretto
    10 Passacaglia in G minor - Andante con grandezza
    11 Gigue in D minor - Presto

    log

    Exact Audio Copy V0.99 prebeta 4 from 23. January 2008
    EAC extraction logfile from 15. December 2009, 20:46
    Natalya Shkoda / Kosenko - Piano Music, Volume 1
    Used drive : HL-DT-STDVDRAM GSA-H10N Adapter: 3 ID: 0
    Read mode : Secure
    Utilize accurate stream : Yes
    Defeat audio cache : Yes
    Make use of C2 pointers : No
    Read offset correction : 667
    Overread into Lead-In and Lead-Out : No
    Fill up missing offset samples with silence : Yes
    Delete leading and trailing silent blocks : No
    Null samples used in CRC calculations : Yes
    Used interface : Native Win32 interface for Win NT & 2000
    Gap handling : Appended to previous track
    Used output format : User Defined Encoder
    Selected bitrate : 768 kBit/s
    Quality : High
    Add ID3 tag : No
    Command line compressor : C:\Program Files\Exact Audio Copy\Flac\flac.exe
    Additional command line options : -8 -V -T "ARTIST=%a" -T "TITLE=%t" -T "ALBUM=%g" -T "DATE=%y" -T "TRACKNUMBER=%n" -T "GENRE=%m" -T "COMMENT=Encoded by EAC 0.99pb4 FLAC -8" %s
    TOC of the extracted CD
    Track | Start | Length | Start sector | End sector
    ---------------------------------------------------------
    1 | 0:00.00 | 4:09.19 | 0 | 18693
    2 | 4:09.19 | 7:06.64 | 18694 | 50707
    3 | 11:16.08 | 5:18.33 | 50708 | 74590
    4 | 16:34.41 | 3:55.50 | 74591 | 92265
    5 | 20:30.16 | 5:53.64 | 92266 | 118804
    6 | 26:24.05 | 5:07.58 | 118805 | 141887
    7 | 31:31.63 | 3:14.44 | 141888 | 156481
    8 | 34:46.32 | 3:48.40 | 156482 | 173621
    9 | 38:34.72 | 5:08.71 | 173622 | 196792
    10 | 43:43.68 | 18:49.60 | 196793 | 281527
    11 | 62:33.53 | 6:27.59 | 281528 | 310611
    Track 1
    Filename E:\EAC\01. Natalya Shkoda - Gavotte in D flat - Allegro mosso.wav
    Pre-gap length 0:00:02.00
    Peak level 52.1 %
    Track quality 100.0 %
    Test CRC CB7AFDE9
    Copy CRC CB7AFDE9
    Track not present in AccurateRip database
    Copy OK
    Track 2
    Filename E:\EAC\02. Natalya Shkoda - Allemande in B flat - Moderato.wav
    Peak level 65.4 %
    Track quality 100.0 %
    Test CRC 070D5640
    Copy CRC 070D5640
    Track not present in AccurateRip database
    Copy OK
    Track 3
    Filename E:\EAC\03. Natalya Shkoda - Menuet in G - Allegretto.wav
    Peak level 60.2 %
    Track quality 99.9 %
    Test CRC 6053FF1F
    Copy CRC 6053FF1F
    Track not present in AccurateRip database
    Copy OK
    Track 4
    Filename E:\EAC\04. Natalya Shkoda - Courante in E min - Vivace.wav
    Peak level 51.5 %
    Track quality 100.0 %
    Test CRC 7245B52B
    Copy CRC 7245B52B
    Track not present in AccurateRip database
    Copy OK
    Track 5
    Filename E:\EAC\05. Natalya Shkoda - Sarabande in A min - Adagio.wav
    Peak level 55.9 %
    Track quality 100.0 %
    Test CRC 4B99E206
    Copy CRC 4B99E206
    Track not present in AccurateRip database
    Copy OK
    Track 6
    Filename E:\EAC\06. Natalya Shkoda - Bourree in A min - Adagio.wav
    Peak level 50.4 %
    Track quality 100.0 %
    Test CRC 4F44E011
    Copy CRC 4F44E011
    Track not present in AccurateRip database
    Copy OK
    Track 7
    Filename E:\EAC\07. Natalya Shkoda - Gavotte in B min - Allegro moderato.wav
    Peak level 29.6 %
    Track quality 99.9 %
    Test CRC 74EBE0B8
    Copy CRC 74EBE0B8
    Track not present in AccurateRip database
    Copy OK
    Track 8
    Filename E:\EAC\08. Natalya Shkoda - Rigaudon in C - Vivace.wav
    Peak level 45.6 %
    Track quality 100.0 %
    Test CRC 18282600
    Copy CRC 18282600
    Track not present in AccurateRip database
    Copy OK
    Track 9
    Filename E:\EAC\09. Natalya Shkoda - Menuet in E flat - Allegretto.wav
    Peak level 53.2 %
    Track quality 100.0 %
    Test CRC ECCF41DC
    Copy CRC ECCF41DC
    Track not present in AccurateRip database
    Copy OK
    Track 10
    Filename E:\EAC\10. Natalya Shkoda - Passacaglia in G min - Andante con grandezza.wav
    Peak level 61.1 %
    Track quality 100.0 %
    Test CRC C5D81417
    Copy CRC C5D81417
    Track not present in AccurateRip database
    Copy OK
    Track 11
    Filename E:\EAC\11. Natalya Shkoda - Gigue in D min - Presto.wav
    Peak level 55.4 %
    Track quality 100.0 %
    Test CRC 1EF1F94A
    Copy CRC 1EF1F94A
    Track not present in AccurateRip database
    Copy OK
    None of the tracks are present in the AccurateRip database
    No errors occurred
    End of status report
Тривалість: 01:09:01
Мова: без слів
Аудіо-кодек: FLAC
Бітрейт: ~ 440 кб/с
Джерело: рутрекерЯкщо Ви справді бажаєте підтримати українське - після прослуховування, якщо музика вам сподобалась,
придбайте ліцензійний диск.
Підтримаймо вітчизняних виконавців!

Anonymous

Опублікувати 14-Чер-2022 20:45

[Цитувати]

Дмитро Губ'як - Грай, кобзарю (2007) [FLAC] | Folk / Instrumental Стиль: Classic Folk Instrumental
Країна, місто: Україна, Тернопіль
Видавець: GroLis Records
Виконавці:
Дмитро Губ'як - бандура, вокал
Пісні:
    01. Прелюдія Fis - Dur (01:22)
    02. Фуга Fis - Dur (02:40)
    03. Соната №14, Ч.2 - Місячна соната (04:52)
    04. Будильник (02:18)
    05. Через поле широкеє (02:12)
    06. Невільничий ринок у Кафі (06:48)
    07. Ой кряче, кряче та чорненький ворон (02:32)
    08. Золота осінь (03:19)
    09. Ох і не стелися хрещатий барвінку (02:43)
    10. Рондо (06:18)
    11. Етюд-картина (02:39)
    12. Жалі мої жалі (01:56)
    13. Я не відчував цього ще ніколи (03:34)
    14. Ой у полі верба (02:38)
    15. Шум моря (02:04)
    16. Ой під горою (02:19)
    17. Тіко-тіко (02:16)
Тривалість: 00:52:30
Мова: українська
Аудіо-кодек: FLAC
Бітрейт: 297-769 кб/с
Джерело: Власний ріп
Додаткова інформація:Український бандурист-вокаліст, композитор, знавець харківського способу гри на бандурі. Учень видатного педагога та конструктора бандур професора Василя Герасименка. Член Національної спілки кобзарів України, заслужений артист України. Викладач бандури Інституту мистецтв Тернопільського Національного педагогічного університету ім. Володимира Гнатюка.
До концертного репертуару входять твори української та світової класики, український фольклор, твори сучасних композиторів та власні композиції.
Якщо Ви справді бажаєте підтримати українське - після прослуховування, якщо музика вам сподобалась, придбайте ліцензійний диск. Підтримаймо вітчизняних виконавців!

Anonymous

Опублікувати 14-Чер-2022 20:45

[Цитувати]

Nathan Milstein - The Complete Deutsche Grammophon Recordings (5CD) (2019) [FLAC] | Classical Стиль: Classical
Країна, місто: Україна, Одеса.
Видавець: Deutsche Grammophon
Виконавці:
Натан Миронович Мільштейн
CD:

CD 1: Tchaikovsky Violin Concerto in D, Op. 35; Mendelssohn Violin Concerto in E minor, Op. 64

CD1
Pyotr Ilyich Tchaikovsky
Violin Concerto in D Major, Op. 35, TH 59 :
01. 1. Allegro moderato (17:04)
02. 2. Canzonetta (Andante) (6:15)
03. 3. Finale (Allegro vivacissimo) (9:04)
Felix Mendelssohn
Violin Concerto in E Minor, Op. 64, MWV O 14 :
04. 1. Allegro molto appassionato (11:30)
05. 2. Andante (7:48)
06. 3. Allegro non troppo - Allegro molto vivace (6:31)
Тривалість: 58:13

CD 2: Brahms Violin Concerto in D, Op. 77

CD2
Johannes Brahms, Nathan Milstein
Violin Concerto in D Major, Op. 77 :
01. 1. Allegro non troppo - Cadenza: Nathan Milstein (21:04)
02. 2. Adagio (9:01)
03. 3. Allegro giocoso, ma non troppo vivace - Poco più presto (8:12)
Тривалість: 38:17

CD 3: Bach Sonatas and Partitas for Solo Violin BMW 1001-1006

CD3
Johann Sebastian Bach
Sonata for Violin Solo No. 1 in G Minor, BWV 1001 :
01. 1. Adagio (3:55)
02. 2. Fuga (Allegro) (5:01)
03. 3. Siciliana (3:10)
04. 4. Presto (2:42)
Partita for Violin Solo No. 1 in B Minor, BWV 1002 :
05. 1. Allemanda (4:07)
06. 2. Double (I) (2:13)
07. 3. Corrente (2:35)
08. 4. Double (Presto) (2:47)
09. 5. Sarabande (2:10)
10. 6. Double (II) (1:26)
11. 7. Tempo di Borea (2:02)
12. 8. Double (III) (2:03)
Sonata for Violin Solo No. 2 in A Minor, BWV 1003 :
13. 1. Grave (4:01)
14. 2. Fuga (7:22)
15. 3. Andante (4:34)
16. 4. Allegro (6:14)
Тривалість: 56:24

CD 4: Bach Sonatas and Partitas for Solo Violin BMW 1001-1006

CD4
Partita for Violin Solo No. 2 in D Minor, BWV 1004 :
01. 1. Allemande (4:04)
02. 2. Corrente (3:33)
03. 3. Sarabande (4:01)
04. 4. Giga (4:13)
05. 5. Ciaccona (14:04)
Sonata for Violin Solo No. 3 in C Major, BWV 1005 :
06. 1. Adagio (4:23)
07. 2. Fuga (9:46)
08. 3. Largo (3:15)
09. 4. Allegro assai (3:40)
Partita for Violin Solo No. 3 in E Major, BWV 1006 :
10. 1. Preludio (3:36)
11. 2. Loure (4:13)
12. 3. Gavotte en Rondeau (3:08)
13. 4a. Minuet I (1:56)
14. 4b. Minuet II (2:02)
15. 5. Bourrée (1:31)
16. 6. Gigue (2:05)
Тривалість:69:28

CD 5: Geminiani Violin Sonata in A major, Op. 1/1; Schubert Rondeau Brillant D 895; Milstein Paganiniana; Liszt Consolation in D flat major S 172/3; Stravinsky Chanson Russe; Kodálky Il pleaut dans la ville; Mussorgsky Hopak.

CD5
Francesco Geminiani
12 Violin Sonatas, Op. 4 - 10. Sonata in A :
01. I. Andante (2:46)
02. II. Allegro (2:06)
03. III. Allegro (2:04)
Franz Schubert
Rondo In B Minor, D. 895, Op.70 :
04. I. Andante (3:01)
05. II. Allegro (10:46)
Nathan Milstein
06. Paganiniana (Variations) For Violin Solo (7:37)
Franz Liszt
07. 6 Consolations, S. 172 - Transcription for Violin: Nathan Milstein : No. 3 In D Flat Major (Lento, placido) (3:17)
Igor Stravinsky
08. Mavra - Arr. Stravinsky & Dushkin : Chanson russe (3:27)
Zoltan Kodaly
09. Il Pleut Dans La Ville (1:34)
Modest Petrovich Mussorgsky
10. Sorochintsy Fair : Hopak (Arr. For Violin and Piano) (1:53)
Тривалість: 38:33
Тривалість: 04:20:37
Мова: iнструментальнi композицiї
Аудіо-кодек: FLAC
Бітрейт: 480-838 кб/с
Джерело: трекер

CUE Corrector

CUE Corrector v. 8.4.2 / b. 1028 (Feb. 10, 2021)
————————————————————————————————————————————————————————————————————————
Nathan Milstein / Nathan Milstein: Complete Deutsche Grammophon Recordings
Folder: Nathan Milstein Complete Deutsche Grammophon Recordings (Compile)
Audio files:
01 Violin Concerto in D Major Op. 35 TH 59 1. Allegro moderato.flac [17:03.773; FLAC • 596 kbps • 16 bit \ 44100 Hz • stereo; 72,74 MB (76 275 289 B)]
02 Violin Concerto in D Major Op. 35 TH 59 2. Canzonetta (Andante).flac [06:15.187; FLAC • 491 kbps • 16 bit \ 44100 Hz • stereo; 21,97 MB (23 042 264 B)]
03 Violin Concerto in D Major Op. 35 TH 59 3. Finale (Allegro vivacissimo).flac [09:04.360; FLAC • 545 kbps • 16 bit \ 44100 Hz • stereo; 35,40 MB (37 124 201 B)]
04 Violin Concerto in E Minor Op. 64 MWV O 14 1. Allegro molto appassionato.flac [11:30.040; FLAC • 594 kbps • 16 bit \ 44100 Hz • stereo; 48,87 MB (51 247 318 B)]
05 Violin Concerto in E Minor Op. 64 MWV O 14 2. Andante.flac [07:48.253; FLAC • 556 kbps • 16 bit \ 44100 Hz • stereo; 31,09 MB (32 599 096 B)]
06 Violin Concerto in E Minor Op. 64 MWV O 14 3. Allegro non troppo - Allegro molto vivace.flac [06:31.160; FLAC • 593 kbps • 16 bit \ 44100 Hz • stereo; 27,67 MB (29 012 325 B)]
07 Violin Concerto in D Major Op. 77 1. Allegro non troppo - Cadenza Nathan Milstein.flac [21:04.000; FLAC • 648 kbps • 16 bit \ 44100 Hz • stereo; 97,70 MB (102 442 175 B)]
08 Violin Concerto in D Major Op. 77 2. Adagio.flac [09:01.000; FLAC • 558 kbps • 16 bit \ 44100 Hz • stereo; 36,01 MB (37 760 117 B)]
09 Violin Concerto in D Major Op. 77 3. Allegro giocoso ma non troppo vivace - Poco più presto.flac [08:12.000; FLAC • 693 kbps • 16 bit \ 44100 Hz • stereo; 40,65 MB (42 627 430 B)]
10 Sonata for Violin Solo No. 1 in G Minor BWV 1001 1. Adagio.flac [03:55.213; FLAC • 813 kbps • 16 bit \ 44100 Hz • stereo; 22,82 MB (23 927 075 B)]
11 Sonata for Violin Solo No. 1 in G Minor BWV 1001 2. Fuga (Allegro).flac [05:01.267; FLAC • 852 kbps • 16 bit \ 44100 Hz • stereo; 30,60 MB (32 089 233 B)]
12 Sonata for Violin Solo No. 1 in G Minor BWV 1001 3. Siciliana.flac [03:10.427; FLAC • 778 kbps • 16 bit \ 44100 Hz • stereo; 17,66 MB (18 520 478 B)]
13 Sonata for Violin Solo No. 1 in G Minor BWV 1001 4. Presto.flac [02:42.227; FLAC • 771 kbps • 16 bit \ 44100 Hz • stereo; 14,91 MB (15 635 023 B)]
14 Partita for Violin Solo No. 1 in B Minor BWV 1002 1. Allemanda.flac [04:07.373; FLAC • 823 kbps • 16 bit \ 44100 Hz • stereo; 24,29 MB (25 469 195 B)]
15 Partita for Violin Solo No. 1 in B Minor BWV 1002 2. Double (I).flac [02:13.000; FLAC • 806 kbps • 16 bit \ 44100 Hz • stereo; 12,79 MB (13 409 733 B)]
16 Partita for Violin Solo No. 1 in B Minor BWV 1002 3. Corrente.flac [02:35.000; FLAC • 811 kbps • 16 bit \ 44100 Hz • stereo; 14,99 MB (15 716 433 B)]
17 Partita For Violin Solo No.1 In B Minor BWV 1002 4. Double (Presto).flac [02:47.000; FLAC • 781 kbps • 16 bit \ 44100 Hz • stereo; 15,55 MB (16 309 888 B)]
18 Partita for Violin Solo No. 1 in B Minor BWV 1002 5. Sarabande.flac [02:09.520; FLAC • 844 kbps • 16 bit \ 44100 Hz • stereo; 13,04 MB (13 674 977 B)]
19 Partita for Violin Solo No. 1 in B Minor BWV 1002 6. Double (II).flac [01:26.053; FLAC • 783 kbps • 16 bit \ 44100 Hz • stereo; 8,04 MB (8 427 770 B)]
20 Partita for Violin Solo No. 1 in B Minor BWV 1002 7. Tempo di Borea.flac [02:02.133; FLAC • 847 kbps • 16 bit \ 44100 Hz • stereo; 12,33 MB (12 930 675 B)]
21 Partita for Violin Solo No. 1 in B Minor BWV 1002 8. Double (III).flac [02:03.307; FLAC • 782 kbps • 16 bit \ 44100 Hz • stereo; 11,50 MB (12 058 231 B)]
22 Sonata for Violin Solo No. 2 in A Minor BWV 1003 1. Grave.flac [04:00.573; FLAC • 780 kbps • 16 bit \ 44100 Hz • stereo; 22,39 MB (23 478 162 B)]
23 Sonata for Violin Solo No. 2 in A Minor BWV 1003 2. Fuga.flac [07:22.440; FLAC • 808 kbps • 16 bit \ 44100 Hz • stereo; 42,65 MB (44 720 400 B)]
24 Sonata for Violin Solo No. 2 in A Minor BWV 1003 3. Andante.flac [04:34.320; FLAC • 726 kbps • 16 bit \ 44100 Hz • stereo; 23,75 MB (24 904 125 B)]
25 Sonata for Violin Solo No. 2 in A Minor BWV 1003 4. Allegro.flac [06:14.080; FLAC • 744 kbps • 16 bit \ 44100 Hz • stereo; 33,20 MB (34 813 526 B)]
26 Partita for Violin Solo No. 2 in D Minor BWV 1004 1. Allemande.flac [04:03.547; FLAC • 783 kbps • 16 bit \ 44100 Hz • stereo; 22,75 MB (23 855 693 B)]
27 Partita for Violin Solo No. 2 in D Minor BWV 1004 2. Corrente.flac [03:32.547; FLAC • 770 kbps • 16 bit \ 44100 Hz • stereo; 19,53 MB (20 477 844 B)]
28 Partita for Violin Solo No. 2 in D Minor BWV 1004 3. Sarabande.flac [04:01.053; FLAC • 800 kbps • 16 bit \ 44100 Hz • stereo; 22,99 MB (24 111 596 B)]
29 Partita for Violin Solo No. 2 in D Minor BWV 1004 4. Giga.flac [04:13.133; FLAC • 791 kbps • 16 bit \ 44100 Hz • stereo; 23,89 MB (25 046 785 B)]
30 Partita for Violin Solo No. 2 in D Minor BWV 1004 5. Ciaccona.flac [14:03.560; FLAC • 785 kbps • 16 bit \ 44100 Hz • stereo; 79,04 MB (82 874 735 B)]
31 Sonata for Violin Solo No. 3 in C Major BWV 1005 1. Adagio.flac [04:22.733; FLAC • 784 kbps • 16 bit \ 44100 Hz • stereo; 24,58 MB (25 772 516 B)]
32 Sonata for Violin Solo No. 3 in C Major BWV 1005 2. Fuga.flac [09:45.547; FLAC • 840 kbps • 16 bit \ 44100 Hz • stereo; 58,66 MB (61 509 310 B)]
33 Sonata for Violin Solo No. 3 in C Major BWV 1005 3. Largo.flac [03:15.467; FLAC • 765 kbps • 16 bit \ 44100 Hz • stereo; 17,84 MB (18 708 142 B)]
34 Sonata for Violin Solo No. 3 in C Major BWV 1005 4. Allegro assai.flac [03:40.027; FLAC • 778 kbps • 16 bit \ 44100 Hz • stereo; 20,42 MB (21 411 119 B)]
35 Partita for Violin Solo No. 3 in E Major BWV 1006 1. Preludio.flac [03:36.013; FLAC • 812 kbps • 16 bit \ 44100 Hz • stereo; 20,92 MB (21 939 891 B)]
36 Partita for Violin Solo No. 3 in E Major BWV 1006 2. Loure.flac [04:12.613; FLAC • 822 kbps • 16 bit \ 44100 Hz • stereo; 24,77 MB (25 971 869 B)]
37 Partita for Violin Solo No. 3 in E Major BWV 1006 3. Gavotte en Rondeau.flac [03:08.373; FLAC • 816 kbps • 16 bit \ 44100 Hz • stereo; 18,34 MB (19 233 953 B)]
38 Partita for Violin Solo No. 3 in E Major BWV 1006 4a. Minuet I.flac [01:56.000; FLAC • 823 kbps • 16 bit \ 44100 Hz • stereo; 11,39 MB (11 943 832 B)]
39 Partita for Violin Solo No. 3 in E Major BWV 1006 4b. Minuet II.flac [02:01.800; FLAC • 770 kbps • 16 bit \ 44100 Hz • stereo; 11,19 MB (11 732 119 B)]
40 Partita for Violin Solo No. 3 in E Major BWV 1006 5. Bourrée.flac [01:30.707; FLAC • 850 kbps • 16 bit \ 44100 Hz • stereo; 9,20 MB (9 644 493 B)]
41 Partita for Violin Solo No. 3 in E Major BWV 1006 6. Gigue.flac [02:04.813; FLAC • 769 kbps • 16 bit \ 44100 Hz • stereo; 11,45 MB (12 009 393 B)]
42 12 Violin Sonatas Op. 4 - 10. Sonata in A I. Andante.flac [02:45.707; FLAC • 658 kbps • 16 bit \ 44100 Hz • stereo; 13,00 MB (13 635 611 B)]
43 12 Violin Sonatas Op. 4 - 10. Sonata in A II. Allegro.flac [02:06.040; FLAC • 640 kbps • 16 bit \ 44100 Hz • stereo; 9,63 MB (10 093 672 B)]
44 12 Violin Sonatas Op. 4 - 10. Sonata in A III. Allegro.flac [02:04.480; FLAC • 685 kbps • 16 bit \ 44100 Hz • stereo; 10,17 MB (10 663 731 B)]
45 Rondo In B Minor D. 895 Op.70 I. Andante.flac [03:01.387; FLAC • 601 kbps • 16 bit \ 44100 Hz • stereo; 13,01 MB (13 636 882 B)]
46 Rondo In B Minor D. 895 Op.70 II. Allegro.flac [10:46.093; FLAC • 620 kbps • 16 bit \ 44100 Hz • stereo; 47,79 MB (50 112 506 B)]
47 Paganiniana (Variations) For Violin Solo.flac [07:36.693; FLAC • 618 kbps • 16 bit \ 44100 Hz • stereo; 33,65 MB (35 282 184 B)]
48 6 Consolations S. 172 - Transcription for Violin Nathan Milstein No. 3 In D Flat Major (Lento placido).flac [03:17.467; FLAC • 619 kbps • 16 bit \ 44100 Hz • stereo; 14,58 MB (15 285 474 B)]
49 Mavra - Arr. Stravinsky & Dushkin Chanson russe.flac [03:27.293; FLAC • 536 kbps • 16 bit \ 44100 Hz • stereo; 13,26 MB (13 900 284 B)]
50 Il Pleut Dans La Ville.flac [01:33.947; FLAC • 502 kbps • 16 bit \ 44100 Hz • stereo; 5,63 MB (5 905 160 B)]
51 Sorochintsy Fair Hopak (Arr. For Violin and Piano).flac [01:52.987; FLAC • 581 kbps • 16 bit \ 44100 Hz • stereo; 7,84 MB (8 216 700 B)]
Accuracy: -m0
File 01 Violin Concerto in D Major Op. 35 TH 59 1. Allegro moderato - 99% CDDA [17:03:57]
File 02 Violin Concerto in D Major Op. 35 TH 59 2. Canzonetta (Andante) - 100% CDDA [06:15:13]
File 03 Violin Concerto in D Major Op. 35 TH 59 3. Finale (Allegro vivacissimo) - 100% CDDA [09:04:27]
File 04 Violin Concerto in E Minor Op. 64 MWV O 14 1. Allegro molto appassionato - 100% CDDA [11:30:03]
File 05 Violin Concerto in E Minor Op. 64 MWV O 14 2. Andante - 100% CDDA [07:48:19]
File 06 Violin Concerto in E Minor Op. 64 MWV O 14 3. Allegro non troppo - Allegro molto vivace - 100% CDDA [06:31:12]
File 07 Violin Concerto in D Major Op. 77 1. Allegro non troppo - Cadenza Nathan Milstein - 100% CDDA [21:04:00]
File 08 Violin Concerto in D Major Op. 77 2. Adagio - 58% CDDA [09:01:00]
File 09 Violin Concerto in D Major Op. 77 3. Allegro giocoso ma non troppo vivace - Poco più presto - 100% CDDA [08:12:00]
File 10 Sonata for Violin Solo No. 1 in G Minor BWV 1001 1. Adagio - 100% CDDA [03:55:15]
File 11 Sonata for Violin Solo No. 1 in G Minor BWV 1001 2. Fuga (Allegro) - 100% CDDA [05:01:19]
File 12 Sonata for Violin Solo No. 1 in G Minor BWV 1001 3. Siciliana - 100% CDDA [03:10:31]
File 13 Sonata for Violin Solo No. 1 in G Minor BWV 1001 4. Presto - 99% CDDA [02:42:16]
File 14 Partita for Violin Solo No. 1 in B Minor BWV 1002 1. Allemanda - 99% CDDA [04:07:27]
File 15 Partita for Violin Solo No. 1 in B Minor BWV 1002 2. Double (I) - 100% CDDA [02:13:00]
File 16 Partita for Violin Solo No. 1 in B Minor BWV 1002 3. Corrente - 100% CDDA [02:35:00]
File 17 Partita For Violin Solo No.1 In B Minor BWV 1002 4. Double (Presto) - 100% CDDA [02:47:00]
File 18 Partita for Violin Solo No. 1 in B Minor BWV 1002 5. Sarabande - 100% CDDA [02:09:39]
File 19 Partita for Violin Solo No. 1 in B Minor BWV 1002 6. Double (II) - 100% CDDA [01:26:04]
File 20 Partita for Violin Solo No. 1 in B Minor BWV 1002 7. Tempo di Borea - 100% CDDA [02:02:10]
File 21 Partita for Violin Solo No. 1 in B Minor BWV 1002 8. Double (III) - 100% CDDA [02:03:23]
File 22 Sonata for Violin Solo No. 2 in A Minor BWV 1003 1. Grave - 100% CDDA [04:00:42]
File 23 Sonata for Violin Solo No. 2 in A Minor BWV 1003 2. Fuga - 100% CDDA [07:22:33]
File 24 Sonata for Violin Solo No. 2 in A Minor BWV 1003 3. Andante - 100% CDDA [04:34:23]
File 25 Sonata for Violin Solo No. 2 in A Minor BWV 1003 4. Allegro - 100% CDDA [06:14:06]
File 26 Partita for Violin Solo No. 2 in D Minor BWV 1004 1. Allemande - 100% CDDA [04:03:40]
File 27 Partita for Violin Solo No. 2 in D Minor BWV 1004 2. Corrente - 100% CDDA [03:32:41]
File 28 Partita for Violin Solo No. 2 in D Minor BWV 1004 3. Sarabande - 100% CDDA [04:01:03]
File 29 Partita for Violin Solo No. 2 in D Minor BWV 1004 4. Giga - 100% CDDA [04:13:10]
File 30 Partita for Violin Solo No. 2 in D Minor BWV 1004 5. Ciaccona - 100% CDDA [14:03:42]
File 31 Sonata for Violin Solo No. 3 in C Major BWV 1005 1. Adagio - 100% CDDA [04:22:54]
File 32 Sonata for Violin Solo No. 3 in C Major BWV 1005 2. Fuga - 100% CDDA [09:45:40]
File 33 Sonata for Violin Solo No. 3 in C Major BWV 1005 3. Largo - 100% CDDA [03:15:35]
File 34 Sonata for Violin Solo No. 3 in C Major BWV 1005 4. Allegro assai - 100% CDDA [03:40:02]
File 35 Partita for Violin Solo No. 3 in E Major BWV 1006 1. Preludio - 100% CDDA [03:36:01]
File 36 Partita for Violin Solo No. 3 in E Major BWV 1006 2. Loure - 100% CDDA [04:12:45]
File 37 Partita for Violin Solo No. 3 in E Major BWV 1006 3. Gavotte en Rondeau - 100% CDDA [03:08:27]
File 38 Partita for Violin Solo No. 3 in E Major BWV 1006 4a. Minuet I - 100% CDDA [01:56:00]
File 39 Partita for Violin Solo No. 3 in E Major BWV 1006 4b. Minuet II - 99% CDDA [02:01:59]
File 40 Partita for Violin Solo No. 3 in E Major BWV 1006 5. Bourrée - 100% CDDA [01:30:53]
File 41 Partita for Violin Solo No. 3 in E Major BWV 1006 6. Gigue - 100% CDDA [02:04:60]
File 42 12 Violin Sonatas Op. 4 - 10. Sonata in A I. Andante - 100% CDDA [02:45:53]
File 43 12 Violin Sonatas Op. 4 - 10. Sonata in A II. Allegro - 100% CDDA [02:06:03]
File 44 12 Violin Sonatas Op. 4 - 10. Sonata in A III. Allegro - 100% CDDA [02:04:36]
File 45 Rondo In B Minor D. 895 Op.70 I. Andante - 100% CDDA [03:01:29]
File 46 Rondo In B Minor D. 895 Op.70 II. Allegro - 100% CDDA [10:46:07]
File 47 Paganiniana (Variations) For Violin Solo - 100% CDDA [07:36:52]
File 48 6 Consolations S. 172 - Transcription for Violin Nathan Milstein No. 3 In D Flat Major (Lento placido) - 100% CDDA [03:17:35]
File 49 Mavra - Arr. Stravinsky & Dushkin Chanson russe - 99% CDDA [03:27:22]
File 50 Il Pleut Dans La Ville - 100% CDDA [01:33:71]
File 51 Sorochintsy Fair Hopak (Arr. For Violin and Piano) - 100% CDDA [01:52:74]
————— Summary: —————
These tracks looks like CDDA with probability 100%.
————————————————————————————————————————————————————————————————————————
ANALYZER:
auCDtect: CD records authenticity detector, version 0.8.2
Copyright (c) 2004 Oleg Berngardt. All rights reserved.
Copyright (c) 2004 Alexander Djourik. All rights reserved.
Time elapsed: 8 m 10 s
Log created at February 19, 2021 19:05:58
=== EAF3CF2EBAFA04FB54B4DBB9B7F7B897FA97FDD06D17204F35839D1750E6FEC2 ===

Anonymous

Опублікувати 14-Чер-2022 20:45

[Цитувати]

Хор Свято-Успенської Почаївської Лаври - Різдвяні ірмоси та піснеспіви (2000) [FLAC, TapeRip] | Classic Стиль: Classic Christian
Країна, місто: Україна, Почаїв
Сайти: немає
Видавець: Свято-Успенська Почаївська Лавра (МП)
Виконавці:
Хор Свято-Успенської Почаївської Лаври під керівництвом ієромонаха Романа (Кимовича)
Пісні:
    01. Тропар Рождеству Христову
    02. Кондак Рождеству Христову
    03. Рождественские ирмосы
    04. Бог Предвічний
    05. Зоря зійшла
    06. Нині Адаме
    07. Ангели в небі
    08. Радість Бог нам посилав
    09. А в Єрусалимі
    10. Бог ся раждає
    11. Господь Бог Предвічний
    12. Заспіваймо, християни
    13. Ах, куда же так спешишь ты
    14. По всьому світу
    15. Три славних царі
    16. А Діва Марія
    17. Слава во вишніх Богу
    18. Добрий вечір, Господарю
    19. Вселенная веселися
    20. З Рождеством Христовим
    21. На небі зірка
    22. Ой, во граді Вифлиємі
    23. Скінія златая
    24. Спи, Ісусе, спи
    25. Рай розвився
    26. Радуйтеся всі людіє
    27. Там високо над землею
    28. Чути дзвінок
    29. Свята ніч
    30. Торжествуйте, веселитесь
Тривалість: 01:27:33
Мова: українська, російська (02, 03, 13)
Аудіо-кодек: FLAC
Бітрейт: 853 - 890 кб/с
Джерело: ярий тверезенник
Додаткова інформація:Оцифровано Pioneer CT-335Якщо Ви справді бажаєте підтримати українське - після прослуховування, якщо музика вам сподобалась, придбайте ліцензійний диск. Підтримаймо вітчизняних виконавців!

Anonymous

Опублікувати 14-Чер-2022 20:45

[Цитувати]

VA - Славетні вальси. Грають духові оркестри (Золота колекція) (2005) [FLAC] | Instrumental Стиль: Classic Instrumental
Країна, місто: Україна, Київ
Видавець: Астра Рекордс
Виконавці:
Духовий оркестр Червонопрапорного Київського військового округу 1, 2, 4, 13
Духовий оркестр Київського суворовського училища 3, 10
Державний духовий оркестр України 5, 8, 9, 11, 14
Духовий оркестр Штабу Червонопрапорного Київського військового округу 6, 12
Зразково-показовий оркестр Національної гвардії України 7
Пісні:
    1. "Амурські хвилі" Макс Кюс
    2. "На сопках Манчжурії" Ілля Шатров
    3. "Спогади" АрчібальдДжойс
    4. "Над хвилями" Ювентіно Розас
    5. "Відгук вальсу" Георгій Свиридов (з музичних ілюстрацій до повісті О.С.Пушкіна "Заметіль")
    6. "Концертний ВаЛЬС" Юрій Саульський
    7. «На схилах Дніпра» Стефан Творун
    8. "Концертний вальс" Яків Цегляр
    9. Вальс з к/ф "А зорі тут тихі" Кирило Молчанов
    10. Вальс з т/ф "Про бідного гусара замовте слово" Андрій Петров
    11. Вальс з к/ф "Мій ласкавий і ніжний звір" Євген Дога
    12. "Троянди півдня" Йоганн Штраус
    13. "Осінній сон" Арчібальд Джойс
    14. Вальс з к/ф "Тарас Шевченко" Борис Лятошинський

log

Отчёт EAC об извлечении, выполненном 1. января 2009, 13:13 для диска:
Various / Знаменитые вальсы
Дисковод: _NEC DVD_RW ND-4571A Adapter: 3 ID: 0
Режим чтения: Достоверный (C2: нет, Точный поток: да, Отключение кэша: нет)
Коррекция смещения при чтении: 0
Способность читать области Lead-in и Lead-out : Нет
Выходной формат: Monkey's Audio Lossless Encoder v3.99 DLL
High Lossless Compression
Другие параметры:
Заполнение пропущенных сэмплов тишиной : Да
Удаление блоков с тишиной в начале и конце : Нет
Установленный внешний ASPI-интерфейс
Трек 1
Имя файла W:\TORRENTS\Славетнi вальси\Знаменитые вальсы - 01 Марк Кюс - Амурские волны - Марк Кюс - Амурские волны.ape
Пиковый уровень 94.2 %
Качество трека 100.0 %
CRC копии 60455F1C
Копирование... OK
Трек 2
Имя файла W:\TORRENTS\Славетнi вальси\Знаменитые вальсы - 02 Илья Шатров - На сопках Манчжурии - Илья Шатров - На сопках Манчжурии.ape
Пиковый уровень 94.4 %
Качество трека 100.0 %
CRC копии 5AF52608
Копирование... OK
Трек 3
Имя файла W:\TORRENTS\Славетнi вальси\Знаменитые вальсы - 03 Арчибальд Джойс - Воспоминания - Арчибальд Джойс - Воспоминания.ape
Пиковый уровень 94.4 %
Качество трека 100.0 %
CRC копии B2256AE1
Копирование... OK
Трек 4
Имя файла W:\TORRENTS\Славетнi вальси\Знаменитые вальсы - 04 Ювентино Розас - Над волнами - Ювентино Розас - Над волнами.ape
Пиковый уровень 94.2 %
Качество трека 100.0 %
CRC копии BC516B7F
Копирование... OK
Трек 5
Имя файла W:\TORRENTS\Славетнi вальси\Знаменитые вальсы - 05 Георгий Свиридов - Эхо вальса - Георгий Свиридов - Эхо вальса.ape
Пиковый уровень 94.3 %
Качество трека 100.0 %
CRC копии E6986C0A
Копирование... OK
Трек 6
Имя файла W:\TORRENTS\Славетнi вальси\Знаменитые вальсы - 06 Юрий Саульский - Концертный Вальс - Юрий Саульский - Концертный Вальс.ape
Пиковый уровень 94.4 %
Качество трека 100.0 %
CRC копии A1390F16
Копирование... OK
Трек 7
Имя файла W:\TORRENTS\Славетнi вальси\Знаменитые вальсы - 07 Стефан Творун - На кручах Днепра - Стефан Творун - На кручах Днепра.ape
Пиковый уровень 94.4 %
Качество трека 100.0 %
CRC копии 0470438E
Копирование... OK
Трек 8
Имя файла W:\TORRENTS\Славетнi вальси\Знаменитые вальсы - 08 Яков Цегляр - Концертный Вальс - Яков Цегляр - Концертный Вальс.ape
Пиковый уровень 94.3 %
Качество трека 100.0 %
CRC копии AFF7FBC4
Копирование... OK
Трек 9
Имя файла W:\TORRENTS\Славетнi вальси\Знаменитые вальсы - 09 Кирил Молчанов - Вальс из к.ф. А зори здесь тихие - Кирил Молчанов - Вальс из к.ф. А зори здесь тихие.ape
Пиковый уровень 94.0 %
Качество трека 100.0 %
CRC копии 423144EB
Копирование... OK
Трек 10
Имя файла W:\TORRENTS\Славетнi вальси\Знаменитые вальсы - 10 Андрей Петров - Вальс из к.ф. О бедном Гусаре замолвите слово - Андрей Петров - Вальс из к.ф. О бедном Гусаре замолвите слово.ape
Пиковый уровень 94.4 %
Качество трека 100.0 %
CRC копии 5307AE64
Копирование... OK
Трек 11
Имя файла W:\TORRENTS\Славетнi вальси\Знаменитые вальсы - 11 Евгений Дога - Вальс из к.ф. Мой ласковый и нежный зверь - Евгений Дога - Вальс из к.ф. Мой ласковый и нежный зверь.ape
Пиковый уровень 94.4 %
Качество трека 100.0 %
CRC копии 1248A353
Копирование... OK
Трек 12
Имя файла W:\TORRENTS\Славетнi вальси\Знаменитые вальсы - 12 Иоган Штраус - Розы Юга - Иоган Штраус - Розы Юга.ape
Пиковый уровень 94.2 %
Качество трека 100.0 %
CRC копии AA27517D
Копирование... OK
Трек 13
Имя файла W:\TORRENTS\Славетнi вальси\Знаменитые вальсы - 13 Арчибальд Джойс - Осенний Сон - Арчибальд Джойс - Осенний Сон.ape
Пиковый уровень 94.4 %
Качество трека 99.9 %
CRC копии B615AB22
Копирование... OK
Трек 14
Имя файла W:\TORRENTS\Славетнi вальси\Знаменитые вальсы - 14 Борис Лятошинский - Вальс из к.ф. Тарас Шевченко - Борис Лятошинский - Вальс из к.ф. Тарас Шевченко.ape
Пиковый уровень 94.2 %
Качество трека 100.0 %
CRC копии 97498F94
Копирование... OK
Ошибок не произошло
Конец отчёта

fooCDtect (дивний, але який є)

fooCDtect - foobar2000 + auCDtect, baralgin.
auCDtect: CD records authenticity detector, version 0.8.2
Copyright (c) 2004 Oleg Berngardt. All rights reserved.
Copyright (c) 2004 Alexander Djourik. All rights reserved.
mode: 0
===========================================
Track: 01 - 'Амурські хвилі' Макс Кюс
Quality: CDDA 100%
===========================================
Track: 02 - 'На сопках Манчжурії' Ілля Шатров
Quality: Unknown
===========================================
Track: 03 - 'Спогади' Арчібальд Джойс
Quality: Unknown
===========================================
Track: 04 - 'Над хвилями' Ювентіно Розас
Quality: Unknown
===========================================
Track: 05 - 'Відгук вальсу' Георгій Свиридов
Quality: Unknown
===========================================
Track: 06 - 'Концертний вальс' Юрій Саульський
Quality: Unknown
===========================================
Track: 07 - «На схилах Дніпра» Стефан Творун
Quality: Unknown
===========================================
Track: 08 - 'Концертний вальс' Яків Цегляр
Quality: CDDA 100%
===========================================
Track: 09 - Вальс з к-ф 'А зорі тут тихі' Кирило Молчанов
Quality: CDDA 100%
===========================================
Track: 10 - Вальс з т-ф 'Про бідного гусара замовте слово' Андрій Петров
Quality: Unknown
===========================================
Track: 11 - Вальс з к-ф 'Мій ласкавий і ніжний звір' Євген Дога
Quality: MPEG 92%
===========================================
Track: 12 - 'Троянди півдня' Йоганн Штраус
Quality: Unknown
===========================================
Track: 13 - 'Осінній сон' Арчібальд Джойс
Quality: Unknown
===========================================
Track: 14 - Вальс з к-ф 'Тарас Шевченко' Борис Лятошинський
Quality: CDDA 94%
===========================================
Тривалість: 01:02:06
Мова: відсутня (instrumental)
Аудіо-кодек: FLAC
Бітрейт: 587 кб/с
Джерело: інший трекер (зібрав в образ, виправив назви, теги)
Додаткова інформація:Здавалося б, можна сказати, що на цьому диску немає ніякого співу. Вальси у виконанні кількох оркестрів. Але ж не просто оркестрів, а духових. Хоча абсолютно кожен музичний інструмент має голос, але не кожен з них співає. А от духові – співають всі. І тому музика у виконанні духового оркестру завжди наповнена повітрям, у ній завжди можна почути природу вітру. Може, і не всякого, але міського вітру – точно. Особливо, коли йдеться про такі знані всіма вальси, як, наприклад, "Амурські хвилі", чи "На сопках Манчжурії". Особисто для мене в цій музиці – літо, парк, діти з морозивом та повітряними кульками, батьки з неквапливою ходою, несподівані зустрічі з давніми знайомими і – усмішки. Вам вона нагадає чи розкаже, напевно, про щось інше. Але мені здається, що у будь-якому разі буде в цьому радість, тиха і справжня – як сонячні промені, що просвічують крізь листя зелене високих дерев, як течія великої ріки, що вже нікуди не спішить. Мені здається, що в цій музиці – сила терпіння.Якщо Ви справді бажаєте підтримати українське - після прослуховування, якщо музика вам сподобалась,
придбайте ліцензійний диск.
Підтримаймо вітчизняних виконавців!

Anonymous

Опублікувати 14-Чер-2022 20:45

[Цитувати]

Державна хорова капеля України "Думка" - Христос рождається. Славіте! (1992) [FLAC, TapeRip] | Classic Стиль: Classic
Країна, місто: Україна, Київ
Сайти: Офіційний сайт
Видавець: ? (U.S.A.)
Виконавці:
Євген Савчук - диригент
Державна хорова капеля України "Думка"
Пісні:
    01. З нами Бог (київський наспів)
    02. Тропар Різдву Христовому (муз. Гончарова)
    03. Діва днесь (кондак, муз. Бортнянського)
    04. Торжествують всі Ангели (київський наспів)
    05. Бог Предвічний (колядка, обр. Людкевича)
    06. Днесь поюще (колядка, обр. Стеценка)
    07. Ой, в Єрусалимі (щедрівка, обр. Яциневича)
    08. Не плач, Рахиле (кант, обр. Скорика)
    09. Величай душе моя (наспів, аранжування Турчанінова)
    10. Слава во вишіх Богу (наспів, аранжування Львовського)
    11. Ой там, за горою (щедрівка, обр. Леонтовича)
    12. Ой рано, рано (колядка, обр. Ступницького)
    13. Щедрик (щедрівка, обр. Леонтовича)
    14. Коза (щедрівка, обр. Леонтовича)
    15. Во Йордані (тропар)
    16. Ой на річці, на Йордані (колядка, обр. Стеценка)
    17. Величай душе моя (наспів, аранжування Турчанінова)
    18. Многоліття (муз. Бортнянського)
    19. Отче наш (муз. Леонтовича)
    20. Да исполнятся уста наша (муз. Веделя)
    21. Боже Великий Єдиний (муз. Лисенка)
Тривалість: 01:06:29
Мова: українська, російська (20)
Аудіо-кодек: FLAC
Бітрейт: 773 - 846 кб/с
Джерело: ярий тверезенник
Додаткова інформація:Оцифровано Pioneer CT-335
"ДУМКА" – національна заслужена академічна капела України (1997), лауреат національної премії ім. Т.Шевченка (1981). У 1919 була створена на основі хору “Дніпросоюзу” на чолі з Н.Городовенком у складі 45 співаків. У 1920 стала називатися Державною українською мандрівною капелою (від початкових літер і походить назва).

Anonymous

Опублікувати 14-Чер-2022 20:45

[Цитувати]

М. Скорик - Опера "Мойсей" (2001) [FLAC] | Classic Стиль: Classic
Країна, місто: Україна, Львів
Сайти: Офіційний сайт
Видавець: Pro-W Ukraine
Виконавці:
Музика: Мирослав Скорик
Лібрето: Богдан Стельмах, Мирослав Скорик
Диригент: Михайло Дутчак
Солісти, хор та оркестр Львівського державного театру опери та балету ім. Соломії Крушельницької.
Пісні:
    CD1
    1. Пролог "Народе мій"
    Перша Дія
    2. Сцена "Світанок"
    3. Монолог Мойсея
    4. Балада Мойсея
    5. Сцена ("Мосціпане Мойсею")
    6. Ухвала Датана
    7. Монолог Мойсея
    8. Поклоніння Ваалу
    Загальна тривалість звучання: 52:03
    CD2
    Друга Дія
    1. Монолог Мойсея
    2. Сцена Азазель і голоси
    3. Хор ("Де Мойсей")
    4. Арія Йохаведди
    5. Сцена (Мойсей, Йохаведда, Азазель)
    6. Буря
    7. Голос Єгови
    8. Хор та Поет
    9. Фінал
    10. Епілог
    Загальна тривалість звучання: 44:54
Тривалість: 1:36:57
Аудіо-кодек: FLAC
Бітрейт: 1411 кб/с
Додаткова інформація:В червні 2001 року відбулася важлива подія: Україну відвідав Папа Римський Іоан Павло ІІ. До цього візиту Львівський державний академічний театр опери та балету імені С. Крушельницької підготував гучну прем'єру: оперу за біблейськими мотивами "Мойсей". Композитор - М. Скорик, лібрето - Б. Стельмах та М. Скорик, диригент - М. Дутчак, керівник проекту - Тадей Едер.
Запис цього твору благословив та підтримав сам Святіший Отець Іоан Павло ІІ.
Якщо Ви справді бажаєте підтримати українське - після прослуховування, якщо музика вам сподобалась, придбайте ліцензійний диск. Підтримаймо вітчизняних виконавців!

Звіт:

CD 1:Exact Audio Copy V0.99 prebeta 4 from 23. January 2008
Звіт EAC про видобування, котре виконане 22. грудня 2008, 17:26
Невідомий Виконавець / Невідома Назва
Дисковод: HL-DT-STDVDRAM GSA-T20N Adapter: 1 ID: 0
Режим читання : Точний
Використати точний потік : Так
Вимкнути аудіо кеш : Ні
Застосувати мітки C2 : Ні
Комбіноване зміщення читання/запису : 0
Екстрачитання областей Lead-in і Lead-out : Ні
Заповнення пропущених семплів тишею : Так
Видалення блоків з тишею на початку і кінці : Ні
При вирахуванні CRC використовувались нульові семпли : Ні
Використаний інтерфейс : 'Рідний' Win32-інтерфейс для Win NT/2000
Поводження з проміжками : Не знайдено, отже приєднано до попереднього трека
Застосований вихідний формат : Кодер Користувача
Обраний бітрейт : 768 kBit/s
Якість : Високий
Додати тег ID3 : Ні
Компресор командного рядка : C:\Program Files\Exact Audio Copy\Flac\flac.exe
Додаткові параметри командного рядка : -6 -V -T "ARTIST=%a" -T "TITLE=%t" -T "ALBUM=%g" -T "DATE=%y" -T "TRACKNUMBER=%n" -T "GENRE=%m" -T "COMMENT=%e" %s -o %d
TOC видобутого CD
Трек | Старт | Довжина | Початковий сектор | Кінцевий сектор
------------------------------------------------------------------
1 | 0:00.00 | 10:18.07 | 0 | 46356
2 | 10:18.07 | 41:45.00 | 46357 | 234231
Трек 1
Ім'я файлу F:\Завантаження\Track01.wav
Піковий рівень 95.2 %
Якість трека 100.0 %
CRC тесту A46BFAD3
CRC копії A46BFAD3
Копіювання... OK
Трек 2
Ім'я файлу F:\Завантаження\Track02.wav
Піковий рівень 95.0 %
Якість трека 100.0 %
CRC тесту 5D9E812E
CRC копії 5D9E812E
Копіювання... OK
Помилки не траплялися
Кінець звіту
CD 2:Exact Audio Copy V0.99 prebeta 4 from 23. January 2008
Звіт EAC про видобування, котре виконане 22. грудня 2008, 16:55
Невідомий Виконавець / Невідома Назва
Дисковод: HL-DT-STDVDRAM GSA-T20N Adapter: 1 ID: 0
Режим читання : Точний
Використати точний потік : Так
Вимкнути аудіо кеш : Ні
Застосувати мітки C2 : Ні
Комбіноване зміщення читання/запису : 0
Екстрачитання областей Lead-in і Lead-out : Ні
Заповнення пропущених семплів тишею : Так
Видалення блоків з тишею на початку і кінці : Ні
При вирахуванні CRC використовувались нульові семпли : Ні
Використаний інтерфейс : 'Рідний' Win32-інтерфейс для Win NT/2000
Поводження з проміжками : Не знайдено, отже приєднано до попереднього трека
Застосований вихідний формат : Кодер Користувача
Обраний бітрейт : 768 kBit/s
Якість : Високий
Додати тег ID3 : Ні
Компресор командного рядка : C:\Program Files\Exact Audio Copy\Flac\flac.exe
Додаткові параметри командного рядка : -6 -V -T "ARTIST=%a" -T "TITLE=%t" -T "ALBUM=%g" -T "DATE=%y" -T "TRACKNUMBER=%n" -T "GENRE=%m" -T "COMMENT=%e" %s -o %d
TOC видобутого CD
Трек | Старт | Довжина | Початковий сектор | Кінцевий сектор
------------------------------------------------------------------
1 | 0:00.00 | 43:07.13 | 0 | 194037
2 | 43:07.13 | 1:47.05 | 194038 | 202067
Трек 1
Ім'я файлу F:\Завантаження\Track01.wav
Піковий рівень 95.0 %
Якість трека 100.0 %
CRC тесту 83632125
CRC копії 83632125
Копіювання... OK
Трек 2
Ім'я файлу F:\Завантаження\Track02.wav
Піковий рівень 94.7 %
Якість трека 100.0 %
CRC тесту 63BDEB67
CRC копії 63BDEB67
Копіювання... OK
Помилки не траплялися
Кінець звіту

Anonymous

Опублікувати 14-Чер-2022 20:45

[Цитувати]

Молодіжний хор "Осанна" - Різдво-Коляда (20??) [FLAC] | Chorus, Instrumental Стиль: Christian Classic
Країна, місто: Україна, Івано-Франківськ
Видавець: "Свічадо"
Виконавці: Молодіжний хор "Осанна"
Пісні:
    1. Все в нас сьогодні (А. Гнатишин)
    2. Свята ніч (Ф. Грубер, аранж. Л. Терлецька)
    3. 7.01 (зі збірки "FM-Галичина", Т. Прохасько)
    4. Зійшла зоря над Вифлиємом (М. Лозинська)
    5. 7.01 (продовження, Т. Прохасько)
    6. Різдвяна (О. Степанович, аранж Л. Терлецька)
    7. 7.01 (продовження-закінчення, Т. Прохасько)
    8. Спи, Ісусе, спи (аранж О. Петрів, Л. Терлецька)
    9. Що то за предиво (обр. О. Кошиця)
    10. Різдвяний вечір в горах (Г. Петросаняк)
    11. На Свят вечір (І. Недільский)
    12. Добрий вечір тобі (обр. К. Стеценка)
    13. Небо і земля (обр. В. Барвінського, переклад для хору Р. Стельмащука)
    14. Народні віншування
    15. На небі зірка (обр. Н. Нижанківського)
    16. Рождество Христове (обр. К. Стеценка)
    17. Ой на ріці, на Йордані (обр. М. Леонтовича)
    18. Щедрівки (фрагмент вокально-хореографічної композиції, А. Кушніренко)
    19. Будьте здорові (аранж. О. Петрів)
    20. Gloria In Excelsis (Б.-І. Антонич)
    21. Різдво-Коляда (муз. В. Жданкіна, опрацювання Б. Генгала, сл. Б.-І. Антонича)

Звіт EAC

Exact Audio Copy V1.0 beta 3 from 29. August 2011
EAC extraction logfile from 30. January 2013, 20:17
Молодіжний хор 'Осанна' / Різдво-Коляда
Used drive : TSSTcorpCDDVDW TS-L633F Adapter: 0 ID: 0
Read mode : Secure
Utilize accurate stream : Yes
Defeat audio cache : Yes
Make use of C2 pointers : No
Read offset correction : 6
Overread into Lead-In and Lead-Out : No
Fill up missing offset samples with silence : Yes
Delete leading and trailing silent blocks : No
Null samples used in CRC calculations : Yes
Used interface : Native Win32 interface for Win NT & 2000
Used output format : User Defined Encoder
Selected bitrate : 896 kBit/s
Quality : High
Add ID3 tag : No
Command line compressor : D:\Dropbox\Install\AudioCDRipping\EAC_1.0_beta_3_Portable_Multilingual\EAC_1.0_beta_3_Portable_Multilingual\App\EAC\FLAC\flac.exe
Additional command line options : -8 -V -T "ARTIST=%artist%" -T "TITLE=%title%" -T "ALBUM=%albumtitle%" -T "DATE=%year%" -T "TRACKNUMBER=%tracknr%" -T "GENRE=%genre%" -T "COMMENT=%comment%" %hascover%--picture="%coverfile%"%hascover% %source% -o %dest%
TOC of the extracted CD
Track | Start | Length | Start sector | End sector
---------------------------------------------------------
1 | 0:00.00 | 0:48.15 | 0 | 3614
2 | 0:48.15 | 4:45.29 | 3615 | 25018
3 | 5:33.44 | 0:50.49 | 25019 | 28817
4 | 6:24.18 | 3:30.33 | 28818 | 44600
5 | 9:54.51 | 1:17.45 | 44601 | 50420
6 | 11:12.21 | 1:50.52 | 50421 | 58722
7 | 13:02.73 | 0:44.40 | 58723 | 62062
8 | 13:47.38 | 3:12.15 | 62063 | 76477
9 | 16:59.53 | 2:38.24 | 76478 | 88351
10 | 19:38.02 | 0:39.43 | 88352 | 91319
11 | 20:17.45 | 2:31.70 | 91320 | 102714
12 | 22:49.40 | 2:22.16 | 102715 | 113380
13 | 25:11.56 | 2:26.35 | 113381 | 124365
14 | 27:38.16 | 0:48.60 | 124366 | 128025
15 | 28:27.01 | 1:55.53 | 128026 | 136703
16 | 30:22.54 | 2:14.13 | 136704 | 146766
17 | 32:36.67 | 2:00.34 | 146767 | 155800
18 | 34:37.26 | 2:52.02 | 155801 | 168702
19 | 37:29.28 | 1:18.19 | 168703 | 174571
20 | 38:47.47 | 0:22.03 | 174572 | 176224
21 | 39:09.50 | 3:16.36 | 176225 | 190960
Range status and errors
Selected range
Filename C:\Users\Микола\Desktop\777\Молодіжний хор 'Осанна' - Різдво-Коляда.wav
Peak level 95.0 %
Extraction speed 3.0 X
Range quality 100.0 %
Test CRC F34D1007
Copy CRC F34D1007
Copy OK
No errors occurred
End of status report
==== Log checksum DAFDCF66534F6821120B4A4FB850CCA9C8A4CBCAC16FDC79D6F5BEF8D54C4D4F ====

Спектр

Тривалість: 00:42:46
Мова: українська
Аудіо-кодек: FLAC
Бітрейт: 690 кбіт/с
Джерело: Власний ріп
 

Поточний час: 04-Лип 20:58

Часовий пояс: UTC ± 0