Пошук знайшов 130 збігів

Автор Повідомлення

Anonymous

Опублікувати 14-Чер-2022 20:23

[Цитувати]

Alla Zagaykevych - Motus (2005) [FLAC] | Avantgarde / Neoclassical / Abstrakt Стиль: Avantgarde / Neoclassical / Abstrakt
Країна, місто: Україна, Київ
Видавець: Nexsound
Виконавці:
Алла Загайкевич - вся музика та інструменти (живі та електронні) *
* доклданіше див. додаткову інформацію
Пісні:
    01. Pagode (07:09)
    02. Gravitation (08:00)
    03. Heroneya (10:57)
    04. Motus (10:11)
    05. Sans L'eloignement De La Terre (13:48)

    EAC log

    Exact Audio Copy V0.99 prebeta 4 from 23. January 2008
    EAC extraction logfile from 18. April 2009, 22:02
    Alla Zagaykevych / Motus
    Used drive : ASUS DRW-1608P3S Adapter: 0 ID: 0
    Read mode : Secure
    Utilize accurate stream : Yes
    Defeat audio cache : Yes
    Make use of C2 pointers : No
    Read offset correction : 48
    Overread into Lead-In and Lead-Out : No
    Fill up missing offset samples with silence : Yes
    Delete leading and trailing silent blocks : No
    Null samples used in CRC calculations : Yes
    Used interface : Native Win32 interface for Win NT & 2000
    Used output format : User Defined Encoder
    Selected bitrate : 1024 kBit/s
    Quality : High
    Add ID3 tag : No
    Command line compressor : C:\Program Files\Exact Audio Copy\FLAC\FLAC.EXE
    Additional command line options : -6 -V -T "ARTIST=%a" -T "TITLE=%t" -T "ALBUM=%g" -T "DATE=%y" -T "TRACKNUMBER=%n" -T "GENRE=%m" -T "COMMENT=%e" %s -o %d
    TOC of the extracted CD
    Track | Start | Length | Start sector | End sector
    ---------------------------------------------------------
    1 | 0:00.00 | 7:11.27 | 0 | 32351
    2 | 7:11.27 | 8:03.01 | 32352 | 68577
    3 | 15:14.28 | 10:58.74 | 68578 | 118001
    4 | 26:13.27 | 10:13.57 | 118002 | 164033
    5 | 36:27.09 | 13:48.48 | 164034 | 226181
    Range status and errors
    Selected range
    Filename C:\Documents and Settings\Admin\Рабочий стол\Alla Zagaykevych - Motus.wav
    Peak level 100.0 %
    Range quality 100.0 %
    Test CRC D10F1360
    Copy CRC D10F1360
    Copy OK
    No errors occurred
    AccurateRip summary
    Track 1 not present in database
    Track 2 not present in database
    Track 3 not present in database
    Track 4 not present in database
    Track 5 not present in database
    None of the tracks are present in the AccurateRip database
    End of status report
Тривалість: 00:50:05
Мова: інструментальні композиції
Аудіо-кодек: FLAC
Бітрейт: 542-933 кб/с
Джерело: CD-ріп -> інший торрент-трекер
Додаткова інформація:

Про авторку

Загайке́вич Алла Леонідівна — українська композиторка. Народилася 17 грудня 1966 року у Хмельницькому. Отримала освіту в Київській державній консерваторії ім. П. І. Чайковського в класі композиції та оркестровки професора Ю. Іщенка (1990). У 1991—1994 роках була аспіранткою кафедри теорії музики (науковий керівник — професор І. П'ясковський) та асистенткою-стажисткою кафедри композиції (науковий керівник — проф. Ю.Іщенко). У 1995—1996 роках вдосконалювала майстерність на курсах композиції та музичної інформатики в паризькому інституті IRCAM (семінари з композиції у Т. Мюрая, Б. Фернехоу, М. Жареля, М. Строппа, Ф.Манурі). У 1986—1999 роках у складі фольклорного ансамблю «Древо» (керівник Є. Єфремов) досліджувала український автентичний спів, брала участь у численних фольклорних експедиціях, конференціях.
З 1998 року викладачка кафедри музично-інформаційних технологій Національної музичної академії України, де заснувала музично-електронну студію.
Основні жанри творчості — симфонічна та камерна музика, камерний музичний театр, електроакустична музика. 2000 року здійснила музичне програмування електроакустичного твору «Ziqquratu II» литовського композитора Шарунаса Накаса, створила електронну музику до відео-інсталяції «Cosi Fan Tutte» української художниці Оксани Плисюк.
Її твори виконують відомі українські та закордонні виконавці: Національний симфонічний оркестр України; камерні оркестри — Рівненської філармонії, Чернігівської філармонії, Український державний ансамбль солістів (камерний оркестр), Київська камерата, Київський камерний оркестр Archi (всі — Україна), Kammersymphoniker (Австрія); ансамблі — Київський ансамбль сучасної музики «Рикошет» (Україна), Фрески (Одеса, Україна), CAT (Україна), Cluster (Львів, Україна), Court-Circuit (Франція) та Ensemble Contemporain de Montreal (Канада). Учасниця багатьох міжнародних фестивалів сучасної музики, зокрема «КиївМузикФест», «Прем'єри сезону», «Мистецьке Березілля» в Києві, «Два дні і дві ночі нової музики» в Одесі, «Музичної традиції та авангарду» в Любліні, а також міждисциплінарних та міжнародних проектів.
1999 року отримала грант Президента України на постановку опери «Числа і вітер» («Малюнки з пам'яті») на поезію М. Воробйова, за яку 2001 року стала лауреатом премії ім. Ревуцького. З 1997 року регулярно отримує гранти Міжнародного фонду «Відродження» для реалізації творчих та просвітницьких проектів. 2004 року була нагороджена Національною премією ім. Олександра Довженка (2004) за музику до фільму Олеся Саніна «Мамай».
Авторка музикознавчих статей в наукових збірках та журналах (Українське музикознавство, вип.52; Музика, 1996; та ін.). Член Національної спілки композиторів України (з 1993 року).

Хронологія творів Алли Загайкевич

1990 Симфонія на поезії В.Маяковського (російською мовою) для баритона та симфонічного оркестру: 20`
1991 Тріо для скрипки, віолончелі та фортепіано: 12`
1992—1997 «Числа і вітер» («Малюнки з пам'яті»), камерна опера за поезією та живописом М.Воробйова (українською мовою) для трьох вокалістів, флейти, кларнета, фаґота, валторни, тромбона, перкусії (2), фортепіано, альта, скрипки, віолончелі, контрабаса: 49`
1993 «Intermezzo» («Інтермецо») для симфонічного оркестру: 11`
1994 «Sans l'Eloignement de la Terre» («Не віддалившись від землі») для скрипки, баяна та гітари: 15`
1995 «Musique Aveugle» («Сліпа музика») для фортепіано та оркестру: 15`
1996 «Ausgesetzt auf den Bergen des Herzens…» на вірші Райнера Марія Рільке (німецькою мовою) для сопрано, органу та струнних: 12`
1996 «І поволі кружляючи я увійду в небесний став …» на поезії Олега Лишеги (українською мовою) для фаґота, контрабаса, кларнета/бас-кларнета та електроніки (lRCAM): 13`
1997 «Mar-X-невідомість» для сопрано та фортепіано: 10`
1998 «Chemins des Ombres» («Шляхи тіней») для тромбона, перкусії та контрабаса: 10`
1998 «Інтерлюдія» для флейти, кларнета, тромбона, фаґота, валторни, перкусії (2), фортепіано, скрипки, альта, віолончелі та контрабаса: 10`
1999 «Човен» на поезії М.Воробйова (українською мовою) для сопрано, мецо-сопрано та баритона (інструментальна версія: «Човен», 2000): 12`
2000 «Cosi Fan Tutte» («Так чинять усі жінки»), електронна музика для аудіо-відео-інсталяції (відео: О.Плисюк): 54`
2000 «Човен» для скрипки (чи флейти), кларнета та віолончелі (версія твору «Човен» на поезії М.Воробйова, 1999): 12`
2002 «Тікати, дихати, мовчати», електронна музика для аудіо-візуальної інсталяції: 45`
2002 «The Way to the Great River» («Шлях до Великої ріки») на текст О.Лишеги (анґлійською мовою) для сопрано та 8-ми інструменталістів (fl, ob, cl, prc, p, vn, vl, vc): 10`
2002 «Ґравітація» для 2-х віолончелей: 7`
2002 «Heroneya» для фагота, фортепіано, скрипки, віолончелі та електронного запису: 12`
2003 «MOTUS» для електронного запису: 10`
2003 «PAGODE» для блок- флейти, електронного запису та обробки в реальному часі: 9`
2003 музика до фільму «МАМАЙ» (реж. Олесь Санін): 72`
Музичну активність Алли Загайкевич можна умовно поділити на дві великі сфери: інструментальна та електронна музика. Ось що вона про це каже : «в інструментальній музиці моя творчість відкрита для так званого «нового модерну»: спектральна музика, new comlexity, інтегрований серіалізм, індивідуальна алгоритмічна композиція. Мене, приміром, лишають агресивно-байдужою мінімалізм та інші прояви постмодернізму. Що ж до моєї електроніки – в ній немає жодних алгоритмів, тут для мене дуже важливий виконавський аспект: електроніка – завжди імпровізація, певне музицирування, навіть у студії. Дуже люблю грати з гарнимим імпровізаторами, участь у грі – навіть в якості live electronics – це можливість відчувати музичний «струм».
Мій основний інструмент для створення електронних партій – програма Super Collider (як для синтезу, так і для обробки в реальному часі), також часто використовую гранульований та морфінговий синтез, генератори шуму. Працюю виключно із власними семплами – зазавичай це нестандартні прийоми гри на інструментах або екзотичні інструменти та голоси.»
Якщо Ви справді бажаєте підтримати українське - після прослуховування, якщо музика вам сподобалась, придбайте ліцензійний диск. Підтримаймо вітчизняних виконавців!

Anonymous

Опублікувати 14-Чер-2022 20:23

[Цитувати]

VA - Nyarlathotep: A Cryo Chamber Collaboration (3CD) (2016) [FLAC] | Dark Ambient / Drone Стиль: Dark Ambient Drone Atmospheric
Країна, місто: Україна, Київ
Сайти: Офіційний сайт
Видавець: Cryo Chamber Collaboration
Виконавці:
Kammarheit, God Body Disconnect, Dronny Darko (Україна, Київ), Ugasanie, Kristoffer Oustad, Alphaxone, Svartsinn, SiJ, Gydja, Atrium Carceri, Darkrad, Flowers for Bodysnatchers, Aegri Somnia, Randal Collier-Ford, Neizvestija, Metatron Omega, Wordclock, protoU (Україна, Київ), Northumbria, Sjellos, Sabled Sun, Council Of Nine, Cryobiosis, Apocryphos, Enmarta, Mystified
CD:

2016 - Nyarlathotep 1

Треклист:
1. Nyarlathotep 1 - 01:05:52
Тривалість: 01:05:52
Мова: відсутня (інструментальні композиції)
Бітрейт: 647 кб/с

2016 - Nyarlathotep 2

Треклист:
1. Nyarlathotep 1 - 01:11:56
Тривалість: 01:11:56
Мова: відсутня (інструментальні композиції)
Бітрейт: 599 кб/с

2016 - Nyarlathotep 3

Треклист:
1. Nyarlathotep 3 - 00:55:46
Тривалість: 00:55:46
Мова: відсутня (інструментальні композиції)
Бітрейт: 682 кб/с
Тривалість: 03:13:34
Мова: iнструментальнi композицii
Аудіо-кодек: FLAC
Бітрейт: 599-682 кб/с
Джерело: трекер
Додаткова інформація:

log

fooCDtect - foobar2000 + auCDtect, baralgin.
auCDtect: CD records authenticity detector, version 0.8.2
Copyright (c) 2004 Oleg Berngardt. All rights reserved.
Copyright (c) 2004 Alexander Djourik. All rights reserved.
mode: 0
===========================================
Track: 01. Nyarlathotep 1
Quality: CDDA 99%
===========================================
Track: 02. Nyarlathotep 2
Quality: CDDA 100%
===========================================
Track: 03. Nyarlathotep 3
Quality: CDDA 100%
===========================================

спектри

01 Nyarlathotep 1
Cryo Chamber has released a giant with this one. In order to fully appreciate what it is, and how it came about, a bit of history is in order. If this isn't your thing, or you already know, just skip down to the third paragraph. One of the early crowning achievements on Cryo Chamber was the collaboration album Cthulhu.

Продовження :

Cryo Chamber delved into a concept which had its fair share of musical interpretations. They came at this concept from a different angle than many had attempted in the past. Simon Heath of Atrium Carceri, Sabled Sun, and owner of Cryo Chamber, surrounded himself with a dozen dark ambient artists, most from Cryo Chamber. Through the power of the internet, they all contributed to a vast library of sounds. Each artist had the reign to pull sounds from one another as they pleased. This allowed them to create their own piece of the story, without becoming disjointed. Then, Simon Heath took these sounds and mixed them into an uninterrupted whole. Coming in at almost 90 minutes of blistering dark ambient. Fans didn't let Cthulhu slip by unnoticed. Cryo Chamber found a large following of dedicated listeners through Cthulhu. Cthulhu brought fans from all the separate artists together. They also found the interest of fans of H.P. Lovecraft's works. All parties came together in this one central location. Here was an album that focused on the most well known of the Lovecraftian Gods. An album which didn't display any tricks or sci-fi gimmicks. The full album was a sweeping, brooding, under/other-worldly experience. Through the subtleties, listeners felt Cthulhu moving through the depths of the sea. All the while just enough Eldritch flavor gave Cthulhu that astral and all-knowing presence.
After the success of Cthulhu, Cryo Chamber dove right back into the Lovecraftian Mythos. This time they conjured another god of the nether-realms, Azathoth. Azathoth is a less documented Outer God, who resides in deep space. Azathoth has an ambiguous nature. This led the artists to take more liberties with their sound direction. On Azathoth, there are less terrestrial sounds. The focus is on the deep and unknown abyss, far from Planet Earth. Cryo Chamber took the basic framework of the Cthulhu album and again applied the formula here. But, this time around, there were more artists and the album came in at over two hours. Again, fans were blown away by the sheer scope of the project. Cryo Chamber recruited the talents of even more artists from outside the label on Azathoth. A few being: Therradaemon, Svartsinn, and Taphephobia. The wider spectrum of artists on Azathoth helped to secure a sound that was vast and often quite disturbing. The other difference here was the greater range in musical dynamics. Cthulhu focused on the brooding terror. It moved through the depths of the sea, emerging to reek havoc upon humanity. Azathoth opened the sound dynamics further. It added in sections which were more musical and a bit less drone oriented. This difference seemed to help introduce the album to an even broader fan base. It marked one of the first steps in Cryo Chamber's evolution. Cryo Chamber has recently showcased a wider variety of artists. Many of these artists' display sounds that don't fall directly into the cinematic dark ambient spectrum.
On Nyarlathotep, Cryo Chamber releases a more ambitious addition to their Lovecraftian Mythos series. Nyarlathotep takes into account everything Cryo Chamber learned on the previous two outings. Yet, it pushes the limits even further. Nyarlathotep consists of 26 artists. Cryo Chamber artists, as well as a handful of artists from outside the label bring forth a whole new tale.
Cthulhu had represented a terror which emerged from the deep seas. Azathoth was a god from deep space. Nyarlathotep is the first time the series has come into direct contact with humanity. Nyarlathotep has taken various forms throughout the works of Lovecraft and his successors. It would seem that he is one of the more sinister gods within the mythos. The thing that makes Nyarlathotep especially interesting is that he has taken the form of a human from time to time. Nyarlathotep most often resembles an ancient Egyptian pharaoh when taking the human form. In the mythos, he walked the Earth, gathering a cult of followers. Meanwhile, the planet comes to the end of its lifespan. In later stories, he took the manifestation of a nocturnal, tentacled, bat-winged monster. Given these two manifestations, there is a lot of room to interpret this wretched being.
Collaborators tap into the various themes throughout this massive three hour excursion. The Egyptian aspects can be recognized as they make appearances throughout the album. The nocturnal and winged elements also show their faces quite often. Cthulhu and Azathoth focused on more abstract concepts. But Nyarlathotep has a much more personal diagnosis. Feelings of fear exhibited by humanity are present. They are evident through the sounds of weeping women and children, among many other things. Movement through the winds, high in the clouds, gives an airy quality. At times there are sinister chants, focusing on the cult of Nyarlathotep. As they chant it seems as if the god is pleased with their reverence. At other points, we feel as if we went inside the mind of Nyarlathotep itself, witnessing the vile inner workings of The Crawling Chaos. A mind, in which dark and horrifying urges meet a sheer sense of enjoyment.
Field recordings and conventional instrumentation are brought brilliantly into the mix. The use of field recordings on this album seems to reach magnificent heights. When listening in lossless quality on headphones, there were numerous times that I was startled by the field recordings. They seemed so realistic that I didn't even realize it was part of the album. I found myself glancing around the room, looking out windows, peering over my shoulder. The presence of The Crawling Chaos cannot be overstated. The use of so many different instruments within the album adds yet another layer of Earthly realism to the mix. Often these instruments take on a Near Eastern quality, usually of the Egyptian variety. This gives us a sense of location as well as a mental image of Nyarlathotep dressed in the garb of a great ancient pharaoh.
Nyarlathotep bolsters 26 artists and a run-time exceeding three hours. It is the most ambitious release yet from Cryo Chamber. It could be the most ambitious project by a dark ambient label since the inception of the genre, decades ago. With so many artists, there are moments when I think I can discern a specific artist's work standing out. But this is a worthless endeavor. Each artist contributed sounds to a massive cache of samples, which then were able to be picked through by all artists involved. So even when I'm thinking I hear something from Metatron Omega, for instance, I have to second guess myself. Maybe it is his audio stem, but was it he who incorporated it here? This question is pretty much impossible to answer without directly asking the artists involved, and even then, we are almost sure to be given some sly and ambivalent answer.
Taking everything into consideration, I am already thinking this is a solid candidate for dark ambient album of the year. From concept, to studio integration, to technique, to mastering, and everything in between, Nyarlathotep hits the intended mark. With each of these Lovecraftian Mythos collaborations, somehow these artists seem to keep topping themselves. Nyarlathotep is one more step up the ladder, one more masterpiece from a label that keeps pushing the boundaries, without alienating the origins of the genre. Nyarlathotep is an absolute must have album for any dark ambient fan. Over the three hours of music, there is never a dull moment, everything is orchestrated to perfection.
Якщо Ви справді бажаєте підтримати українське - після прослуховування, якщо музика вам сподобалась, придбайте ліцензійний диск. Підтримаймо вітчизняних виконавців!

Anonymous

Опублікувати 14-Чер-2022 20:23

[Цитувати]

VA - Dark Ambient of 2016 by Cryo Chamber (2016) [FLAC] |Ambient / Dark Ambient Стиль: Ambient Dark Ambient Drone
Країна, місто: Україна, Київ
Сайти: Офіційний сайт
Видавець: Cryo Chamber Collaboration
Пісні:
    00:00 God Body Disconnect - Rise of the Dormant Host
    06:53 Hoshin - Souvenir from the Sacred
    13:14 Keosz - Low Down
    18:49 Sabled Sun - Overgrown
    22:55 Metatron Omega - Transductio
    31:40 Apocryphos - Consanguineous Spirit
    39:44 ProtoU - Unreal Symbols
    50:20 Cities Last Broadcast - Glossolalia
    57:02 Enmarta - Apokatástasis II
Тривалість: 01:06:15
Мова: iнструментальнi композицii
Аудіо-кодек: FLAC
Бітрейт: 581 кб/с
Джерело: bandcamp
Додаткова інформація:Якщо Ви справді бажаєте підтримати українське - після прослуховування, якщо музика вам сподобалась, придбайте ліцензійний диск. Підтримаймо вітчизняних виконавців!

Anonymous

Опублікувати 14-Чер-2022 20:23

[Цитувати]

Tomato Jaws - Feel Me (2010) [FLAC] | Electronic Стиль: Electronic
Країна, місто: Україна, Київ
Сайти: Офіційний сайт
Видавець: MOON Records
Виконавці:
Alex Junior (Олександр Жижченко) - синтезатори, семплери
Playone (Павло Ленченко) - синтезатори, семплери
Nata Tomata (Ната Жижченко) - вокал
Пісні:
    01. I Can Breathe
    02. Never Let U Down
    03. Innocent
    04. Why Don’t You
    05. Dreaming Of You
    06. Grass
    07. Simple Place 2010
    08. Hope
    09. Feel Me
    10. Due To You
    11. Plakala
    12. Стяги На Стяги (feat. Бумбокс)
    Відео:

    Feel Me

    Тривалість: 00:03:01
    Якість: DVDRip
    Відео:
    кодек: MPEG-4 (DivX 5)
    розмір кадру: 720x400
    бітрейт: 4008 кб/с
    Аудіо:
    мова: англійська
    кодек: MP3
    бітрейт: 160 кб/с
    Скріншоти:

Log

Exact Audio Copy V1.0 beta 3 from 29. August 2011
Отчёт EAC об извлечении, выполненном 23. января 2013, 10:11
Tomato Jaws / Feel Me
Дисковод: ASUS DRW-2014S1T Adapter: 2 ID: 8
Режим чтения : Достоверность
Использование точного потока : Да
Отключение кэша аудио : Да
Использование указателей C2 : Нет
Коррекция смещения при чтении : 6
Способность читать области Lead-in и Lead-out : Нет
Заполнение пропущенных сэмплов тишиной : Да
Удаление блоков с тишиной в начале и конце : Нет
При вычислениях CRC использовались нулевые сэмплы : Да
Интерфейс : Встроенный Win32-интерфейс для Win NT/2000
Обработка зазоров : Добавлено к предыдущему треку
Выходной формат : Пользовательский кодировщик
Выбранный битрейт : 128 kBit/s
Качество : Высокий
Добавление ID3-тега : Нет
Утилита сжатия : C:\Program Files\Exact Audio Copy\Flac\flac.exe
Дополнительные параметры : -V -8 -T "Genre=%genre%" -T "Artist=%artist%" -T "Title=%title%" -T "Album=%albumtitle%" -T "Date=%year%" -T "Tracknumber=%tracknr%" -T "Comment=%comment%" %source%
TOC извлечённого CD
Трек | Старт | Длительность | Начальный сектор | Конечный сектор
---------------------------------------------------------------------
1 | 0:00.00 | 4:43.14 | 0 | 21238
2 | 4:43.14 | 6:08.66 | 21239 | 48904
3 | 10:52.05 | 4:59.24 | 48905 | 71353
4 | 15:51.29 | 3:45.66 | 71354 | 88294
5 | 19:37.20 | 5:07.55 | 88295 | 111374
6 | 24:45.00 | 2:27.36 | 111375 | 122435
7 | 27:12.36 | 5:32.61 | 122436 | 147396
8 | 32:45.22 | 5:27.65 | 147397 | 171986
9 | 38:13.12 | 3:04.25 | 171987 | 185811
10 | 41:17.37 | 5:33.53 | 185812 | 210839
11 | 46:51.15 | 4:00.67 | 210840 | 228906
12 | 50:52.07 | 4:26.74 | 228907 | 248930
13 | 57:51.06 | 10:20.30 | 260331 | 306860
Трек 1
Имя файла D:\Documents and Settings\user\Рабочий стол\«»—0–\01 Tomato Jaws I Can Breathe.wav
Длина предзазора 0:00:02.00
Пиковый уровень 100.0 %
Скорость извлечения 5.0 X
Качество трека 99.9 %
CRC теста BB6256C2
CRC копии BB6256C2
Копирование... OK
Трек 2
Имя файла D:\Documents and Settings\user\Рабочий стол\«»—0–\02 Tomato Jaws Never Let U Down.wav
Пиковый уровень 100.0 %
Скорость извлечения 6.4 X
Качество трека 100.0 %
CRC теста 35DDA6A3
CRC копии 35DDA6A3
Копирование... OK
Трек 3
Имя файла D:\Documents and Settings\user\Рабочий стол\«»—0–\03 Tomato Jaws Innocent.wav
Пиковый уровень 100.0 %
Скорость извлечения 6.9 X
Качество трека 100.0 %
CRC теста 3485380F
CRC копии 3485380F
Копирование... OK
Трек 4
Имя файла D:\Documents and Settings\user\Рабочий стол\«»—0–\04 Tomato Jaws Why Don't You.wav
Пиковый уровень 100.0 %
Скорость извлечения 7.1 X
Качество трека 100.0 %
CRC теста 00A03104
CRC копии 00A03104
Копирование... OK
Трек 5
Имя файла D:\Documents and Settings\user\Рабочий стол\«»—0–\05 Tomato Jaws Dreaming Of You.wav
Пиковый уровень 100.0 %
Скорость извлечения 7.1 X
Качество трека 99.9 %
CRC теста 4A8A700B
CRC копии 4A8A700B
Копирование... OK
Трек 6
Имя файла D:\Documents and Settings\user\Рабочий стол\«»—0–\06 Tomato Jaws Grass.wav
Пиковый уровень 100.0 %
Скорость извлечения 7.1 X
Качество трека 100.0 %
CRC теста BEE4D6DD
CRC копии BEE4D6DD
Копирование... OK
Трек 7
Имя файла D:\Documents and Settings\user\Рабочий стол\«»—0–\07 Tomato Jaws Simple Place 2010.wav
Пиковый уровень 100.0 %
Скорость извлечения 8.3 X
Качество трека 100.0 %
CRC теста 08D28FDA
CRC копии 08D28FDA
Копирование... OK
Трек 8
Имя файла D:\Documents and Settings\user\Рабочий стол\«»—0–\08 Tomato Jaws Hope.wav
Пиковый уровень 100.0 %
Скорость извлечения 8.7 X
Качество трека 100.0 %
CRC теста D8375ED4
CRC копии D8375ED4
Копирование... OK
Трек 9
Имя файла D:\Documents and Settings\user\Рабочий стол\«»—0–\09 Tomato Jaws Feel Me.wav
Пиковый уровень 100.0 %
Скорость извлечения 8.2 X
Качество трека 100.0 %
CRC теста C298EDFF
CRC копии C298EDFF
Копирование... OK
Трек 10
Имя файла D:\Documents and Settings\user\Рабочий стол\«»—0–\10 Tomato Jaws Due To You.wav
Пиковый уровень 100.0 %
Скорость извлечения 9.1 X
Качество трека 100.0 %
CRC теста 18EE1AC0
CRC копии 18EE1AC0
Копирование... OK
Трек 11
Имя файла D:\Documents and Settings\user\Рабочий стол\«»—0–\11 Tomato Jaws Плакала.wav
Пиковый уровень 100.0 %
Скорость извлечения 9.3 X
Качество трека 100.0 %
CRC теста 60C5EC42
CRC копии 60C5EC42
Копирование... OK
Трек 12
Имя файла D:\Documents and Settings\user\Рабочий стол\«»—0–\12 Tomato Jaws Стяги На Стяги (feat. Бумбокс).wav
Пиковый уровень 99.9 %
Скорость извлечения 9.0 X
Качество трека 100.0 %
CRC теста E6937D37
CRC копии E6937D37
Копирование... OK
Ошибок не произошло
Конец отчёта
==== Контрольная сумма отчёта 07492D43B29AECE17E218CA660589F4C5F336C564D1D32824D46A44005833785 ====
Тривалість: 00:49:07
Мова: українська (11,12), англійська (1-10)
Аудіо-кодек: FLAC
Бітрейт: 932 кб/с
Джерело: ріп із власного CD
Додаткова інформація:Офіційно група Tomato Jaws була створена в 2000 році. Ініціатором створення тріо є Олександр Жижченко. Старший брат (сценічне ім'я Alex Junior) Нати Жижченко (другого учасника колективу).
У 2001 році, після закінчення естрадної кафедри Інституту культури і мистецтв, Alex Junior цікавився електронними напрямками, пізніше заснував свою школу електронної музики Innertion і звукозаписну студію під лейблом Innertion. У 2002 році пристрасть до електронної музики матеріалізувалося у створення колективу під назвою Tomato Jaws. Учасники група гастролювали по клубах України і записали перший студійний альбом –Tomato Jaws (2004). Колектив записав ще три альбоми: No Concept (2005), One Secret (2008), Feel Me (2010).
Якщо Ви справді бажаєте підтримати українське - після прослуховування, якщо музика вам сподобалась, придбайте ліцензійний диск. Підтримаймо вітчизняних виконавців!

Anonymous

Опублікувати 14-Чер-2022 20:23

[Цитувати]

ONUKA - KOLIR (2021) [FLAC] | Electronic / Folk Стиль: Electronic / Folk
Країна, місто: Україна, Київ
Сайти: Офіційний сайт
Видавець: Vidlik Records
Виконавці:
Ната Жижченко - тексти, вокал
Дарина Серт - клавішні
Марія Сорокіна - барабани
Євген Йовенко - бандура
Пісні:
    01. VSTUP
    02. CEAHC
    03. ZENIT
    04. UYAVY (за уч. DakhaBrakha)
    05. TY
    06. GUMA
    07. XASHI
    08. NA SAMOTI
    09. SON
    10. 23: 42
Тривалість: 00:35:17
Мова: українська
Аудіо-кодек: FLAC
Бітрейт: 593 - 968 кб/с
Джерело: Deezer
Додаткова інформація:

Спектри

Якщо Ви справді бажаєте підтримати українське - після прослуховування, якщо музика вам сподобалась, придбайте ліцензійний диск. Підтримаймо вітчизняних виконавців!

Anonymous

Опублікувати 14-Чер-2022 20:23

[Цитувати]

Go_A - #ідиназвук (2016) [FLAC] | Electronic / Folk Стиль: Electronic / Folk
Країна, місто: Україна, Київ
Видавець: Moon Vinyl s.r.o.
Виконавці:
Go_A:
Тарас Шевченко – електроніка, перкусія
Катерина Павленко – вокал
Олександр Федоренко – гітара
Також брали участь у запису альбому:
Вікторія Шарафутдінова – сопілка, бек-вокал;
Микита Ефанов – діджеріду;
Марія Новікова – віолончель.
Пісні:
    01. Веснянка
    02. Вогні
    03. Сонце
    04. Намалюй
    05. Небо в долонях
    06. Жальменіна
    07. Кольоровими фарбами
    08. Іди на звук
    09. Повернись
    10. Намалюй, акустика (Bonus Track)
Тривалість: 00:44:58
Мова: українська, українська-російська (4, 10)
Аудіо-кодек: FLAC
Бітрейт: 833 - 1161 кб/с
Джерело: Інтернет
Додаткова інформація:

Спектри

Якщо Ви справді бажаєте підтримати українське - після прослуховування, якщо музика вам сподобалась, придбайте ліцензійний диск. Підтримаймо вітчизняних виконавців!

Anonymous

Опублікувати 14-Чер-2022 20:23

[Цитувати]

Турбо техно саунд - Асфальтний синдром (1996) [WAVE, TapeRip] | Eurodance Стиль: Eurodance
Країна, місто: Україна, Франківськ
Видавець: Sofi
Виконавці:
Роман Матіяш
Олена Дюлова
Тарас Пушик
Пісні:
    01. Залізо
    02. Не космічними стежками
    03. Я намалюю
    04. Мій човен
    05. Асфальтний синдром
    06. Сни
    07. Судний день
    08. Асфальтний синдром (mix)
    09. Золото й болото
    10. Нам не потрібен спокій
    11. Реклама
Тривалість: 00:44:31
Мова: українська
Аудіо-кодек: WAVE
Бітрейт: 1411 кб/с
Джерело: Privat
Додаткова інформація:Оцифровано Pioneer CT-335
Хто може реставрувати в двох піснях (03, 10) провальні місця, відгукніться!
Якщо Ви справді бажаєте підтримати українське - після прослуховування, якщо музика вам сподобалась, придбайте ліцензійний диск. Підтримаймо вітчизняних виконавців!

Anonymous

Опублікувати 14-Чер-2022 20:23

[Цитувати]

Tineidae | Дискографiя (5CD) (2012-2020) [FLAC] | IDM / Ambient Стиль: IDM / Ambient
Країна, місто: Україна, Львів
Видавець: Tympanik Audio / CRL Studios / Cryo Chamber
Виконавці:
Павло Сторонський
Альбми:

2012 - Lights

Треклист:
01. Torchlights (3:17)
02. Azure (4:25)
03. Rigel (5:32)
04. Kasatka (4:03)
05. Absence (5:34)
06. Monolight (3:01)
07. Aquila (4:13)
08. Sky Of Glass (6:04)
09. Observatory (4:37)
10. Paper Birds (6:08)
11. Hollow Lullaby (2:10)
Тривалість: 00:49:08
Мова: інструментальні композиції
Аудіо-кодек: FLAC
Бітрейт: 652 - 906 кб/с
Видавець: Tympanik Audio
Скріншот - cпектри перевiрки якостi:


[spoiler="2013 - Random Signal Analysis">

"]

[spoiler="2013 - Random Signal Analysis
    Треклист:
    01. Initial Phase (05:44)
    02. Procyon (feat. KSI) (04:20)
    03. Luminance (03:49)
    04. Distant Focus (02:58)
    05. Arc (04:41)
    06. Stellar Wind (04:32)
    07. Initial Phase (Lon Springer Remix) (05:38)
    08. Kasatka (Medkit Remix) (04:04)
Тривалість: 00:35:49
Мова: інструментальні композиції
Аудіо-кодек: FLAC
Бітрейт: 1442 - 1694 кб/с [24 біт] (1-7), 913 кб/с [16 біт] (8)
Видавець: CRL Studios
Скріншот - cпектри перевiрки якост:
[/justify]
[spoiler="2014 - Shadows">

"] [/justify][spoiler="2014 - Shadows

Треклист:
01. Damaged Datastream (05:18)
02. Be.heavier (04:30)
03. Ntt (04:56)
04. G_RN (03:26)
05. Chased By A Moment (05:17)
06. Antidote (04:11)
07. Shapeshift (06:18)
08. Alta (05:23)
09. Lotus Feet (Feat. Trickle) (05:24)
10. Subconscious (05:01)
11. Echoing Lights (Feat. Anodised) (04:44)
Тривалість: 00:54:28
Мова: інструментальні композиції
Аудіо-кодек: FLAC
Бітрейт: 1461 - 1776 кб/с [24 біт]
Видавець: Tympanik Audio
Скріншот - cпектри перевiрки якост:


[spoiler="2019 - Slowly Drown In Static">

"]

[spoiler="2019 - Slowly Drown In Static

Треклист:
01. Abyss Will Gaze Into Thee - 03:40
02. Four Suns - 04:45
03. Sail To The Ashen City - 03:12
04. Palace Of The Hollow - 03:29
05. Vermilion Haze - 03:03
06. Worship - 03:24
07. Transition - 04:22
08. One Last Step -04:10
Лог якост: Тривалість: 00:30:05
Мова: інструментальні композиції
Аудіо-кодек: FLAC
Бітрейт: 581 - 860 кб/с
Видавець: Tympanik Audio

2020 - Exo

Треклист:
01. Blacklight Trail - 04:54
02. Patterns in the Sky - 07:01
03. Abandoned Mothership - 05:03
04. Metal Claws - 06:31
05. Battle Scars - 09:01
06. Stars so Bright, My Eyes Hurt - 05:04
07. Reconnection - 05:29
08. Sky Burial - 06:56
09. Star Mist - 07:01
10. Epilogue - 04:55
Тривалість: 01:01:59
Мова: інструментальні композиції
Аудіо-кодек: FLAC
Бітрейт: 666 - 895 кб/с
Видавець: Cryo Chamber

Dynamic Range Meter

foobar2000 1.4.2 / Dynamic Range Meter 1.1.1
log date: 2021-03-13 16:13:20
--------------------------------------------------------------------------------
Analyzed: Tineidae / Exo
--------------------------------------------------------------------------------
DR Peak RMS Duration Track
--------------------------------------------------------------------------------
DR10 -0.30 dB -12.97 dB 4:54 01-Blacklight Trail
DR10 -1.02 dB -13.36 dB 7:02 02-Patterns In The Sky
DR12 -0.29 dB -16.26 dB 5:03 03-Abandoned Mothership
DR11 -0.21 dB -14.94 dB 6:31 04-Metal Claws
DR9 -0.70 dB -12.67 dB 9:01 05-Battle Scars
DR10 -0.67 dB -12.82 dB 5:05 06-Stars So Bright, My Eyes Hurt
DR10 -2.14 dB -14.01 dB 5:29 07-Reconnection
DR9 -0.67 dB -14.05 dB 6:57 08-Sky Burial
DR10 -0.33 dB -14.62 dB 7:01 09-Star Mist
DR9 -0.33 dB -13.24 dB 4:55 10-Epilogue
--------------------------------------------------------------------------------
Number of tracks: 10
Official DR value: DR10
Samplerate: 44100 Hz
Channels: 2
Bits per sample: 24
Bitrate: 727 kbps
Codec: FLAC
================================================================================
Тривалість: 03:34:43
Мова: інструментальні композиції
Аудіо-кодек: FLAC
Бітрейт: 581-1776 кб/сЯкщо Ви справді бажаєте підтримати українське - після прослуховування, якщо музика вам сподобалась, придбайте ліцензійний диск. Підтримаймо вітчизняних виконавців!

Anonymous

Опублікувати 14-Чер-2022 20:23

[Цитувати]

Refinders - Skin Effect (2018) [FLAC] | Synth-pop Стиль: Synth Pop
Країна, місто: Україна, Київ
Видавець: BE Music Publishing
Виконавці:
Влад Велєєв
Євген Якушко
Костянтин Нікітін
Пісні:
    01. Idiot Cycle
    02. Devil's Cards
    03. Boost Imagination
    04. Like Many Times Before
    05. Run Mr Max
    06. All Night Long
    07. Eat, Bang, Pray
    08. It Feels So Real
Тривалість: 00:35:11
Мова: англiйська
Аудіо-кодек: FLAC
Бітрейт: 783 - 992 кб/с
Джерело: Інтернет
Додаткова інформація:

Спектри

Якщо Ви справді бажаєте підтримати українське - після прослуховування, якщо музика вам сподобалась, придбайте ліцензійний диск. Підтримаймо вітчизняних виконавців!

Anonymous

Опублікувати 14-Чер-2022 20:23

[Цитувати]

Slavick Ciganec - Новий Ренесанс (2020) [FLAC] | IDM Стиль: IDM
Країна, місто: Україна, Івано-Франківськ | CША, Нью-Йорк
Сайти: Офіційний сайт
Видавець: BosaBabe Records
Виконавці:
Вячеслав Циганець - клавішні, композитор, аранжувальник та продюсер
Пісні:
    01. Універсальна людина / Universal Man
    02. Новий Ренесанс / New Renaissance
    03. Довге повернення (Головна тема) / Long Return (Main Version)
    04. Кислотний коктейль / Acid Cocktail
    05. Мачо-кіт / Macho Cat
    06. Екзотична риба / Exotic Fish
    07. Довге повернення (Позивні) / Long Return (Sign)
Тривалість: 00:28:03
Мова: інструментальні композиції
Аудіо-кодек: FLAC
Бітрейт: 939 кб/с
Джерело: https://slavickciganec.bandcamp.com/album/new-renaissance
Додаткова інформація:
Slavick Ciganec - електронний музикант родом з Прикарпаття, останні декілька років мешкає в Нью-Йорку, де працює діджеєм на радіо
«Новий Ренесанс» - це найновіша робота, одинадцятий студійний альбом, що в повній мірі характеризує особливості стилю автора - еклектичність, медитативність, атмосферність, тяжіння до експериментів
Якщо Ви справді бажаєте підтримати українське - після прослуховування, якщо музика вам сподобалась, придбайте ліцензійний диск. Підтримаймо вітчизняних виконавців!

Anonymous

Опублікувати 14-Чер-2022 20:23

[Цитувати]

Alienapia - Goapocalipsis (2010) [FLAC] | Goa Trance Стиль: Goa Trance
Країна, місто: Україна
Видавець: Space Baby Records ‎– SBCD 005
Виконавці:
Artwork By – Pollen
Composed By, Producer – Dmitry Likhachev*, Grigory Sobinov*
Mastered By – Kodzu
Пісні:
    01. Alienapia - Distinctive Perception (01:25)
    02. Alienapia - Dharmakaya (07:33)
    03. Alienapia - Estimate Of Standing Crop (07:44)
    04. Alienapia - High Visual Philosophy (07:22)
    05. Alienapia - Inner Poison (08:08)
    06. Alienapia - Magic Magnification (07:19)
    07. Alienapia vs Psy-H - Fear And Anger (08:19)
    08. Ra - Reign Of Madness (Alienapia Rmx) (07:37)
    09. Alienapia vs Agneton - Misterika Island (08:31)
    10. Alienapia - Remnant (01:04)
Тривалість: 01:57:42
Мова: українська
Аудіо-кодек: FLAC
Бітрейт: "Selected bitrate : 1024 kBit/s"
Джерело: discogs.com/

Anonymous

Опублікувати 14-Чер-2022 20:23

[Цитувати]

Kurs Valüt - Veselo (2018) [FLAC] | EBM / Synthpop Стиль: EBM / Synthpop / Dark Electro
Країна, місто: Україна, Днiпро
Видавець: Pincet
Виконавці:
Гордєєв Євген
Пісні:
    01. Nomer
    02. Pozyka
    03. Ne Tvij
    04. Intercity
    05. Ni
    06. 4533
    07. Nemaje Sliv
    08. Love Inspektor
    09. Shkala
    10. Vikno
    11. Transgender
    12. IT Sphere
    13. Ikla
    14. Veselo
Тривалість: 00:59:01
Мова: українська
Аудіо-кодек: FLAC
Бітрейт: 582 - 886 кб/с
Джерело: Інтернет
Додаткова інформація:

Спектри

bandcamp – https://goo.gl/E5NRZx
google music – https://goo.gl/B4UdNG
itunes – https://goo.gl/7K91Ea
spotify – https://goo.gl/bPsbGNЯкщо Ви справді бажаєте підтримати українське - після прослуховування, якщо музика вам сподобалась, придбайте ліцензійний диск. Підтримаймо вітчизняних виконавців!

Anonymous

Опублікувати 14-Чер-2022 20:22

[Цитувати]

НастяЗникає - Голосу гілочка [EP] (2020) [FLAC] | Electronic / Soul Стиль: Electronic / Soul
Країна, місто: Україна, Київ
Видавець: Past Future Jam
Виконавці:
Вокал, електрогітара: Анастасія Осипенко
Пісні:
    01. Вимикай вайфай
    02. Пейзаж забування
    03. Неоперена пташка
    04. Комашка сонця
Тривалість: 00:14:33
Мова: українська
Аудіо-кодек: FLAC
Бітрейт: 647 - 760 кб/с
Джерело: Інтернет
Додаткова інформація:

Спектри

Придбати:
Google Music - https://cutt.ly/IujP7KLЯкщо Ви справді бажаєте підтримати українське - після прослуховування, якщо музика вам сподобалась, придбайте ліцензійний диск. Підтримаймо вітчизняних виконавців!

Anonymous

Опублікувати 14-Чер-2022 20:22

[Цитувати]

Гурт [О] - Києве мій (EP) (2020) [FLAC] | Electronic Стиль: Electronic
Країна, місто: Україна, Київ
Видавець: Masterskaya
Виконавці:
Ольга Чернишова
Олександр Каспров
Пісні:
    01. Києве мій
    02. Там, куди я йду
    03. Золота пора
    04. Там, куди я йду (P. PAT Remix)
Тривалість: 00:13:03
Мова: українська
Аудіо-кодек: FLAC
Бітрейт: 831 - 1023 кб/с
Джерело: Інтернет
Додаткова інформація:

Спектри

Якщо Ви справді бажаєте підтримати українське - після прослуховування, якщо музика вам сподобалась, придбайте ліцензійний диск. Підтримаймо вітчизняних виконавців!

Anonymous

Опублікувати 14-Чер-2022 20:22

[Цитувати]

Ті хто відают - Мовленнєк (2011) [FLAC] | Electrodub / Experimental Стиль: Electro Ethno Ambient
Країна, місто: Україна, Івано-Франківськ
Видавець: familia PERKALABA
Виконавці:
Concept By [Ідея], Music By, Programmed By, Mixed By – Кузя (2)
Design [Дизайн Та DTP] – Максим Гавронський
Guitar – Євген Таран*
Illustration, Design – Гриця Ерде
Liner Notes – Мох (3)
Mastered By, Engineer [Звукорежисер] – Максим Скорупський
Recorded By [Запис Голосу] – Пуйтуш
Voice, Lyrics By – Мох (3)
Written-By – Володимир Шухевич
Пісні:
    1. Баба (4:31)
    2. Гасити вуглє (2:40)
    3. Про котєт (3:17)
    4. Урекливий (4:59)
    5. Анклюз (5:51)
    6. Про горіуку (5:26)
    7. У горі у Чорногорах (3:17)
    8. Вовкуни (6:41)
    9. Співаночка (5:47)
    10. Сороміцькі коломийки (3:54)
Тривалість: 00:46:23
Мова: українська
Аудіо-кодек: FLAC
Бітрейт: 1013 кб/с
Джерело: losslessclub
Додаткова інформація:Не знаю, чи є щось подібне у світі – а от в Україні, думаю, аналогічних експериментів досі ніхто таки не робив. І чудернацька вийшла платівка – але "забирає", як то кажуть, одразу. Мабуть, тому, що це не просто музика – НЕПРОСТО музика. З одного боку – Мох (Олег Гнатів) начитав справжні магічні гуцульські тексти, примовки від нечистої сили. І їхню силу важко не відчути. З іншого боку – Кузя (Сергій Кузьмінський) створив музичну складову і надав всьому матеріалу саме того специфічного звучання, яке виводить альбом на якусь інакшу орбіту. І те, що Кузі тепер немає на цім світі – додає містиці проекту "Ті, Хто Відают" якоїсь остаточної безкомпромісності. Построкові лінії напруги електронних візерунків у сполученні з текстами, які не ділять світ на чорне і біле, а лише на Силу й не-Силу, без нашарувань сучасної моралі – ладні призвести до зворотного вибуху свідомості. Іншими словами: максимальна вкоріненість в автентику – але саме в тій частині, яка відповідає за суцільне заперечення соціуму на користь досвідів особистого всесвіту. І це взагалі не варт оцінювати з загальних позицій. Бо з магією для звичайної людини все так: працює або ні. Ця – працює. А решту знають Ті, Хто Відают...Якщо Ви справді бажаєте підтримати українське - після прослуховування, якщо музика вам сподобалась, придбайте ліцензійний диск. Підтримаймо вітчизняних виконавців!
 

Поточний час: 04-Лип 20:44

Часовий пояс: UTC ± 0