Пошук знайшов 491 збігів

Автор Повідомлення

Anonymous

Опублікувати 19-Чер-2022 15:31

[Цитувати]

Національна музична премія - Українська пісня року (2019) WEBRip 1080p | Pop Стиль: Pop
Країна: Україна
Опис:
12 лютого 2020 року у Палаці “Україна” в Києві відбудеться національна музична церемонія “Пісня року” за участі найяскравіших зірок українського шоу-бізнесу. Тут будуть кращі з найкращих та всі ті, без кого просто неможливо уявити жоден актуальний музичний захід.
Національна музична церемонія
Звичайно, не обійдеться і без зіркових ведучих. Цього вечора на нашій сцені - Катерина Осадча та Юрій Горбунов! Кращі пісні, зіркові артисти та неймовірне шоу, яке неможливо пропустити! Ти маєш бути там!
У концерті брали участь:
Ніна Матвієнко
Олександр Пономарьов
Павло Зібров
Олег Винник
Дзідзіьо
Наталя Могилевська
MÉLOVIN
Михайло Поплавський
Мішель Андраде
Сегій Бабкін
NK
Тривалість: 01:51:10
Якість: WEBRip
Відео: кодек: H.264 розмір кадру: 1920 х 1080 бітрейт: 3200 кб/с
Аудіо: мова: українська кодек: AAC 2.0 бітрейт: 128 кб/с

Про файл:

General
Unique ID : 185559440526314525625021500438580822466 (0x8B9972C39D41F51543674E8E576401C2)
Complete name : D:\Documents\Torrents\Rizne\Національна музична премія.Українська пісня року.2019.WEBRip.1080p.mkv
Format : Matroska
Format version : Version 4
File size : 2.60 GiB
Duration : 1 h 51 min
Overall bit rate : 3 354 kb/s
Movie name : rip by sergiyko
Encoded date : UTC 2020-07-05 08:11:35
Writing application : mkvmerge v47.0.0 ('Black Flag') 64-bit
Writing library : libebml v1.3.10 + libmatroska v1.5.2
Video
ID : 1
Format : AVC
Format/Info : Advanced Video Codec
Format profile :
Format settings : CABAC / 3 Ref Frames
Format settings, CABAC : Yes
Format settings, Reference : 3 frames
Codec ID : V_MPEG4/ISO/AVC
Duration : 1 h 51 min
Bit rate : 3 224 kb/s
Width : 1 920 pixels
Height : 1 080 pixels
Display aspect ratio : 16:9
Frame rate mode : Constant
Frame rate : 25.000 FPS
Color space : YUV
Chroma subsampling : 4:2:0
Bit depth : 8 bits
Scan type : Progressive
Bits/(Pixel*Frame) : 0.062
Stream size : 2.50 GiB (96%)
Writing library : x264 core 155 r2901 7d0ff22
Language : Ukrainian
Default : Yes
Forced : No
Color range : Limited
Color primaries : BT.709
Transfer characteristics : BT.709
Matrix coefficients : BT.709
Audio
ID : 2
Format : AAC LC
Format/Info : Advanced Audio Codec Low Complexity
Codec ID : A_AAC-2
Duration : 1 h 51 min
Bit rate : 128 kb/s
Channel(s) : 2 channels
Channel layout : L R
Sampling rate : 44.1 kHz
Frame rate : 43.066 FPS (1024 SPF)
Compression mode : Lossy
Stream size : 102 MiB (4%)
Language : Ukrainian
Default : Yes
Forced : No
Скріншоти:

https://www.youtube.com/watch?v=A6McqLOhe4o

Anonymous

Опублікувати 19-Чер-2022 15:30

[Цитувати]

Океан Ельзи - Коли ми станем собою (25-08-2020) WEBRip 2160p | Pop-Rock Стиль: Pop-Rock
Країна: Україна
Над піснею працювали:
Автор (музика, слова), вокал - Святослав Вакарчук
Барабани, перкусія - Денис Глінін
Бас гітара - Денис Дудко
Електрогітара - Владімір Опсеніца
Акустична гітара, фортепіано - Мілош Єліч
Дитячий хор - Лука Єліч, Міла Єліч, Вук Єліч, Софія Туринська, Соломія Олесова, Марічка Вакарчук, Нана Фонарьова, Георгій Фонарьов
Опис: ​Океан Ельзи - Коли ми станем собою
Тривалість: 00:05:06
Якість: WEBRip
Відео: кодек: VP9 розмір кадру: 3840 х 2160 бітрейт: 6215 кб/с
Аудіо: мова: українська кодек: AAC 2.0 бітрейт: 128 кб/с

Про файл:

General
Unique ID : 156498156971547992546173523198684180516 (0x75BC72DC6248F26A395ECD0DB4243024)
Complete name : C:\Users\Sergij\Pictures\Океан Ельзи-Коли ми станем собою.2020.Official video.4k.mkv
Format : Matroska
Format version : Version 4
File size : 232 MiB
Duration : 5 min 6 s
Overall bit rate : 6 344 kb/s
Encoded date : UTC 2020-08-26 06:22:28
Writing application : mkvmerge v49.0.0 ('Sick Of Losing Soulmates') 64-bit
Writing library : libebml v1.4.0 + libmatroska v1.6.1
Video
ID : 1
Format : VP9
Codec ID : V_VP9
Duration : 5 min 6 s
Bit rate : 6 215 kb/s
Width : 3 840 pixels
Height : 2 160 pixels
Display aspect ratio : 16:9
Frame rate mode : Constant
Frame rate : 25.000 FPS
Color space : YUV
Bits/(Pixel*Frame) : 0.030
Stream size : 227 MiB (98%)
Language : Ukrainian
Default : Yes
Forced : No
Color range : Limited
Color primaries : BT.709
Transfer characteristics : BT.709
Matrix coefficients : BT.709
Audio
ID : 2
Format : AAC LC
Format/Info : Advanced Audio Codec Low Complexity
Codec ID : A_AAC-2
Duration : 5 min 6 s
Bit rate : 128 kb/s
Channel(s) : 2 channels
Channel layout : L R
Sampling rate : 44.1 kHz
Frame rate : 43.066 FPS (1024 SPF)
Compression mode : Lossy
Stream size : 4.67 MiB (2%)
Language : Ukrainian
Default : Yes
Forced : No
https://www.youtube.com/watch?v=1VBNqvLa_7Y

Anonymous

Опублікувати 19-Чер-2022 15:30

[Цитувати]

БЕZ ОБМЕЖЕНЬ - Буду з тобою (2018) WEBRip 1080p | Pop-Rock Стиль: Pop-Rock
Країна, місто: Україна, Київ
Гiтара, клавіші: Iгор Рибар
Гiтара: Андрiй Радько
Бас-гітара: Олександр Адаменко
Барабани: Олексiй Бережний
Вокал: Сергiй Танчинець
Опис:18 грудня 2018 року пройшов великий концерт гурту БЕZ ОБМЕЖЕНЬ, яким команда фiналiзувала всеукраїнський тур "Буду з тобою!". Понад 8 тисяч шанувальників зібралися на першому сольному концерті такого рівня - у київському Палаці Спорту. Соліст гурту Сергiй Танчинець не переставав дякувати усім, що прийшли, а фани БО не хотіли відпускати музикантів зі сцени навіть після другого виконання на біс пісні “Без неї ніяк”.
Презентуючи четвертий студійний альбом "Буду з тобою!", рок-гурт організував грандіозне шоу з використанням сучасних технологій. Головною декорацією на сцені було величезне дерево, як символ історичного корiння та потужності нації, це також читалося у відеоряді і спецефектах.

Тривалість: 01:42:22
Якість: WEBRip

Відео:
кодек: H.264 розмір кадру: 1920 х 1080 бітрейт: 3000 кб/с
Аудіо: мова: українська кодек: AAC 2.0 бітрейт: 160 кб/с [Stereo]

Треклист:

01 ІНТРО+БУДУ З ТОБОЮ
02 ЛИСТОПАД
03 НАЛИЙ МЕНІ ВИНА
04 ТОНУ
05 ВИКИДАЄШ
06 НА МЕЛІ
07 РОЗКАЖИ
08 МОЯ КРАЇНА
09 ВОЛЯ
10 5 ХВИЛИН
11 НЕ ЗНАЮ ЯК
12 ХТО Я
13 НАЙ БИ ВЖЕ ВЕСНА
14 ДО НЕБЕС
15 ЛІТАК НА ДВОХ
16 ХОЧЕШ
17 МАМИНІ СЛОВА
18 ЗОРІ ЗАПАЛАЛИ
19 ТВОЇ ОЧІ
20 БЕЗ НЕЇ НІЯК
21 UNDERGROUND
22 ЗИМА
23 БУДУ З ТОБОЮ
24 БЕЗ НЕЇ НІЯК

Про файл:

General
Unique ID : 39419743653474747265194838074038645860 (0x1DA7F76A97CC910929E9AF90B52F7464)
Complete name : D:\Documents\Torrents\Rizne\БЕZ ОБМЕЖЕНЬ-Буду з тобою.2018.WEBRip.1080p.mkv
Format : Matroska
Format version : Version 4
File size : 2.16 GiB
Duration : 1 h 42 min
Overall bit rate : 3 021 kb/s
Movie name : rip by sergiyko
Encoded date : UTC 2020-07-05 09:40:40
Writing application : mkvmerge v47.0.0 ('Black Flag') 64-bit
Writing library : libebml v1.3.10 + libmatroska v1.5.2
Cover : Yes
Attachments : cover.jpeg
Video
ID : 1
Format : AVC
Format/Info : Advanced Video Codec
Format profile :
Format settings : CABAC / 3 Ref Frames
Format settings, CABAC : Yes
Format settings, Reference : 3 frames
Codec ID : V_MPEG4/ISO/AVC
Duration : 1 h 42 min
Bit rate : 2 891 kb/s
Width : 1 920 pixels
Height : 1 080 pixels
Display aspect ratio : 16:9
Frame rate mode : Constant
Frame rate : 25.000 FPS
Color space : YUV
Chroma subsampling : 4:2:0
Bit depth : 8 bits
Scan type : Progressive
Bits/(Pixel*Frame) : 0.056
Stream size : 2.07 GiB (96%)
Language : Ukrainian
Default : Yes
Forced : No
Color range : Limited
Color primaries : BT.709
Transfer characteristics : BT.709
Matrix coefficients : BT.709
Audio
ID : 2
Format : AAC LC
Format/Info : Advanced Audio Codec Low Complexity
Codec ID : A_AAC-2
Duration : 1 h 42 min
Bit rate : 128 kb/s
Channel(s) : 2 channels
Channel layout : L R
Sampling rate : 44.1 kHz
Frame rate : 43.066 FPS (1024 SPF)
Compression mode : Lossy
Stream size : 93.7 MiB (4%)
Language : Ukrainian
Default : Yes
Forced : No
Menu
00:00:10.000 : uk:01 ІНТРО+БУДУ З ТОБОЮ
00:05:34.000 : uk:02 ЛИСТОПАД
00:08:52.000 : uk:03 НАЛИЙ МЕНІ ВИНА
00:12:02.000 : uk:04 ТОНУ
00:15:22.000 : uk:05 ВИКИДАЄШ
00:19:05.000 : uk:06 НА МЕЛІ
00:23:00.000 : uk:07 РОЗКАЖИ
00:27:32.000 : uk:08 МОЯ КРАЇНА
00:32:56.000 : uk:09 ВОЛЯ
00:38:18.000 : uk:10 5 ХВИЛИН
00:42:19.000 : uk:11 НЕ ЗНАЮ ЯК
00:46:30.000 : uk:12 ХТО Я
00:52:30.000 : uk:13 НАЙ БИ ВЖЕ ВЕСНА
00:57:03.000 : uk:14 ДО НЕБЕС
01:01:25.000 : uk:15 ЛІТАК НА ДВОХ
01:03:30.000 : uk:16 ХОЧЕШ
01:07:15.000 : uk:17 МАМИНІ СЛОВА
01:12:27.000 : uk:18 ЗОРІ ЗАПАЛАЛИ
01:17:02.000 : uk:19 ТВОЇ ОЧІ
01:21:17.000 : uk:20 БЕЗ НЕЇ НІЯК
01:26:26.000 : uk:21 UNDERGROUND
01:30:26.000 : uk:22 ЗИМА
01:34:01.000 : uk:23 БУДУ З ТОБОЮ
01:37:05.000 : uk:24 БЕЗ НЕЇ НІЯК
Скріншоти:

Запис: sergiyko

Anonymous

Опублікувати 19-Чер-2022 15:30

[Цитувати]

Червона Рута - 1989 / Chervona Ruta – 1989 (1989 – 1990) VHSRip | Pop / Rock / Bard sub Eng Стиль:
Країна, місто: Україна, Чернівці – New Jersey
Сайти: Офіційний сайт
Виконавці: Тарас Петриненко і гурт Гроно, Василь Жданкін, Віктор Морозов, Едуард Драч, Андрій Миколайчук, Брати Гадюкіни, Віка Врадій, Тарас Курчик та ін.
Додаткова інформація:
Фільм «Chervona Ruta –1989» відзнятий у 1989 році у Чернівцях та змонтований у 1990 році в Нью-Джерсі (США). Режисер фільму Кирило Стеценко – український скрипаль, композитор, культуролог, музичний і телевізійний продюсер, педагог і громадський діяч.
«Червона рута» як явище виникла ще за часів існування СРСР у 1989 р., коли у Чернівцях відбувся перший фестиваль національної молодіжної музики. «Червона рута» здійснила справжню «революцію» в українській культурі, що мала вплив на все суспільство. Фестиваль народив нову молодіжну музику, якої до цього не існувало. Раніше українська молодь, не маючи своїх вітчизняних кумирів, змушена була задовольнятися московською естрадою, або слухати західних поп-зірок.
Тисячі людей, які побували на фестивалі з усіх куточків України та зарубіжжя (США, Аргентини, Австралії, Британії, Німеччини, Франції, Італії, Бельгії, Польщі, Чехії, Литви, Латвії, Естонії, Росії, Білорусі, Казахстану та ін.) можуть впізнати себе серед глядачів конкурсної та концертної програми фестивалю.
Якщо ви впізнали себе на відео, або ж маєте будь-які відео- чи фотоматеріали цього фестивалю просимо відгукнутися на наші сторінки в соціальних мережах! Спільно ми формуватимемо єдиний український національний інформаційний простір.
Відкрита «Рутою» нова музична хвиля здобула нечувану популярність в Україні і в українській діаспорі. Багато пісень, виконаних вперше на фестивалі, одразу стали хітами, які співали мільйони людей. Переможці «Рути – 89» та їх пісні займали перші місця в усіх хіт-парадах та різноманітних опитуваннях. Миттєво, вчора зовсім невідомі музиканти перетворилися на загальних кумирів української молоді кінця 80-х – початку 90-х років. Вже протягом наступного року вся Україна співала «рутівський» репертуар Василя Жданкіна, «Братів Гадюкіних», Сестрички Віки, Андрія Миколайчука, Олександра Тищенка, «ВВ», Ірини Білик, Марічки Бурмаки, «Тризубого Стаса» та ін.

Те саме англійською

Тhe movie «Chervona Ruta – 1989» was assembled in 1990 in New Jersey (USA). Film director was Kyrylo Stetsenko , the Ukrainian violinist, composer, music and television producer, educator and social activist. The film includes footage of the first festival of contemporary music and popular songs «Chervona Ruta» that held in 19 – 24 of September 1989 in Chernivtsi.
Thousands of people visited the festival from all over Ukraine and abroad (USA, Argentina, Australia, Britain, Germany, France, Italy, Belgium, Poland, Lithuania, Latvia, Estonia, Russia, Belarus, Kazakhstan, etc.) Can recognize themselves among the spectators of the competition and concert festival «Chervona Ruta – 1989».
Those who identified themselves in the video, or those who have any video, photo materials of the festival, please respond to our Facebook! Together we will be forming a single Ukrainian National information space.
«Chervona Ruta» as a phenomen emerged in the days of the Soviet Union in 1989, during the first festival in Chernivtsi, when the national youth music was hold. «Chervona Ruta» made a real «revolution» in Ukrainian culture, which has influenced the whole society. The festival gave birth to a new youth music, which had not existed. Earlier Ukrainian youth, not having their national heroes, was forced to settle for a podium Moscow, or listen to western pop stars.
Opened by «Ruta», the new wave music has gained popularity in Ukraine and the Ukrainian diaspora. Many of the songs performed at the festival for the first time, immediately became hits that are sung by millions of people. Winners of the «Ruta – 89» and their songs took first place in all the charts and various surveys. Instantly, yesterday completely unknown musicians have become a common Ukrainian youth idols late 80's – early 90's. For the next year Ukraine all sang «Ruta» songs: Vasyl Zhdankin, «Braty Hadiukiny», Sestrychka Vicka, Andriy Mykolaichuk , Olexandr Tyschenko, «VV», Iryna Bilyk, Marichka Burmaka, «Tryzubyi Stas» and others.
Тривалість: 01:25:08
Якість: VHSRip
Відео:
кодек: MPEG-4
розмір кадру: 480 х 360
бітрейт: 380 кб/с
Аудіо:
мова: українська
кодек: AAC
бітрейт: 96 кб/с

Скріншоти











також на Толоці
Червона Рута (україномовна оригінальна версія, 1971) DVD5

також на Толоці
VA - Фестиваль "Червона Рута — 1989" (4 альбоми) [MP3]

також на Толоці
VA – „Червона рута – 93“ Переможці фестивалю (1993) VHSRip

Джерело:
Особиста оцінка: 10 - без зайвих вагань рекомендую всім!

Anonymous

Опублікувати 19-Чер-2022 15:30

[Цитувати]

З Днем народження, Україно! (2018) WEBRip 1080p | Pop
Стиль: Pop
Країна: Україна
Виконавці: Тіна Кароль, Олег Винник, Оля Полякова, MONATIK, Ніна Матвієнко, TAYANNA, Макс Барських, ALEKSEEV, Сергій Бабкін, THE HARDKISS, гурти «НЕАНГЕЛИ», «ТІК» та «Антитіла», Alyosha, TARABAROVA, KADNAY, Freedom-jazz та Альона Вінницька
Тривалість: 01:49:00
Якість: WEBRip
Відео: кодек: H.264 розмір кадру: 1920 х 1080 бітрейт: 2745 кб/с
Аудіо: мова: українська кодек: AAC 2.0 бітрейт: 128 кб/с

Про файл:

General
Unique ID : 278100042162487876365451654334050986495 (0xD1381EB0096D8B7254F60AC35A73E9FF)
Complete name : E:\content\З Днем народження,Україно!2018.WEBRip.1080p.mkv
Format : Matroska
Format version : Version 4
File size : 2.19 GiB
Duration : 1 h 49 min
Overall bit rate : 2 873 kb/s
Movie name : by sergiyko
Encoded date : UTC 2019-08-06 07:34:15
Writing application : mkvmerge v35.0.0 ('All The Love In The World') 64-bit
Writing library : libebml v1.3.9 + libmatroska v1.5.2
Cover : Yes
Attachments : cover.jpeg
Video
ID : 1
Format : AVC
Format/Info : Advanced Video Codec
Format profile :
Format settings : CABAC / 3 Ref Frames
Format settings, CABAC : Yes
Format settings, Reference : 3 frames
Codec ID : V_MPEG4/ISO/AVC
Duration : 1 h 49 min
Bit rate : 2 745 kb/s
Width : 1 920 pixels
Height : 1 080 pixels
Display aspect ratio : 16:9
Frame rate mode : Constant
Frame rate : 25.000 FPS
Color space : YUV
Chroma subsampling : 4:2:0
Bit depth : 8 bits
Scan type : Progressive
Bits/(Pixel*Frame) : 0.053
Stream size : 2.09 GiB (96%)
Language : Ukrainian
Default : Yes
Forced : No
Color range : Limited
Color primaries : BT.709
Transfer characteristics : BT.709
Matrix coefficients : BT.709
Audio
ID : 2
Format : AAC LC
Format/Info : Advanced Audio Codec Low Complexity
Codec ID : A_AAC-2
Duration : 1 h 49 min
Bit rate : 126 kb/s
Channel(s) : 2 channels
Channel layout : L R
Sampling rate : 44.1 kHz
Frame rate : 43.066 FPS (1024 SPF)
Compression mode : Lossy
Delay relative to video : 82 ms
Stream size : 97.9 MiB (4%)
Language : Ukrainian
Default : Yes
Forced : No
Скріншоти:

https://www.youtube.com/watch?v=mXMxBO9HoW0

Anonymous

Опублікувати 19-Чер-2022 15:30

[Цитувати]

Мілен Фармер: концерт "Таймлесс 2013" / Mylene Farmer: Timeless 2013 - Le Film (2014) BDRip 720p Fre | Sub Ukr/Fre Жанр: концерт, музичний, документальний
Країна: Франція

Стиль: Pop Rock
Кінокомпанія: Stuffed Monkey, Universal Music France
Режисер: Франсуа Ансс / François Hanss
Виконавці: Мілен Фармер / Mylène Farmer
Сайти: Офіційний сайт
Сюжет:Фільм-концерт, змонтований з живих записів чотирьох концертів "TIMELESS 2013" в Ліоні 24-25 та 27-28 вересня 2013 року в залі "Halle Tony Garnier" під час туру на підтримку однойменного шостого концертного альбому (і п'ятнадцятого в загальному рахунку) у творчій діяльності Мілен Фармер.Тривалість: 02:06:43
Якість: BDRip
Відео:
кодек: H.264
розмір кадру: 1280x536
бітрейт: 4490 кб/с
Аудіо:
мова: французька
кодек: AC3 5.1
бітрейт: 448 кб/с
Субтитри:
мова: українська + французька / англійська (див. скріншоти)
тип: програмні (м'які)
формат: *.srt
примітка: знаходяться у окремому файлі MediaInfo та x264 log: Код:
General
Unique ID : 254914992246110021038461501674410062296 (0xBFC6D7789A4F965790FE0528206DB1D8)
Complete name : D:excogitatorisMy DocumentsXviD4PSPMylene.Farmer.Timeless.2013.BDRip.720p.mkv
Format : Matroska
Format version : Version 2
File size : 4.37 GiB
Duration : 2h 6mn
Overall bit rate : 4 939 Kbps
Movie name : Timeless (2013) BDRip (720p)
Encoded date : UTC 2018-10-01 13:25:31
Writing application : mkvmerge v5.8.0 ('No Sleep / Pillow') built on Sep 2 2012 15:37:04
Writing library : libebml v1.2.3 + libmatroska v1.3.0
Video
ID : 1
Format : AVC
Format/Info : Advanced Video Codec
Format profile : [email protected]
Format settings, CABAC : Yes
Format settings, ReFrames : 8 frames
Codec ID : V_MPEG4/ISO/AVC
Bit rate : 4 490 Kbps
Width : 1 280 pixels
Height : 536 pixels
Display aspect ratio : 2.40:1
Frame rate mode : Variable
Original frame rate : 25.000 fps
Color space : YUV
Chroma subsampling : 4:2:0
Bit depth : 8 bits
Scan type : Progressive
Bits/(Pixel*Frame) : 0.262
Title : Release by Alex260680
Writing library : x264 core 142 r2479 dd79a61
Encoding settings : cabac=1 / ref=8 / deblock=1:-2:-2 / analyse=0x3:0x133 / me=umh / subme=11 / psy=1 / psy_rd=1.00:0.05 / mixed_ref=1 / me_range=32 / chroma_me=1 / trellis=2 / 8x8dct=1 / cqm=0 / deadzone=21,11 / fast_pskip=0 / chroma_qp_offset=-3 / threads=6 / lookahead_threads=1 / sliced_threads=0 / nr=0 / decimate=0 / interlaced=0 / bluray_compat=0 / constrained_intra=0 / bframes=7 / b_pyramid=2 / b_adapt=2 / b_bias=0 / direct=3 / weightb=1 / open_gop=0 / weightp=2 / keyint=250 / keyint_min=25 / scenecut=40 / intra_refresh=0 / rc=2pass / mbtree=0 / bitrate=4490 / ratetol=1.0 / qcomp=0.60 / qpmin=0 / qpmax=69 / qpstep=4 / cplxblur=20.0 / qblur=0.5 / ip_ratio=1.40 / pb_ratio=1.30 / aq=1:1.00
Language : French
Default : Yes
Forced : No
Audio
ID : 2
Format : AC-3
Format/Info : Audio Coding 3
Mode extension : CM (complete main)
Format settings, Endianness : Big
Codec ID : A_AC3
Duration : 2h 6mn
Bit rate mode : Constant
Bit rate : 448 Kbps
Channel(s) : 6 channels
Channel positions : Front: L C R, Side: L R, LFE
Sampling rate : 48.0 KHz
Bit depth : 16 bits
Compression mode : Lossy
Stream size : 406 MiB (9%)
Title : Original
Language : French
Default : Yes
Forced : No
Menu
00:00:00.000 : en:Prologue
00:03:00.440 : en:Timeless Genesis
00:07:19.160 : en:A force de…
00:12:18.400 : en:Comme j’ai mal
00:16:12.240 : en:C’est une belle journee
00:21:55.040 : en:Monkey Me
00:27:21.560 : en:Slipping away (Crier la vie) en duo avec Moby
00:31:12.400 : en:Elle a dit
00:34:53.680 : en:Oui mais… Non
00:39:22.480 : en:Timeless Ballet
00:43:55.080 : en:Mad World en duo avec Gary Jules
00:47:46.160 : en:Les Mots en duo avec Gary Jules
00:53:27.040 : en:Je te dis tout
00:58:55.640 : en:Et pourtant…
01:05:03.240 : en:Desenchantee
01:14:06.000 : en:Bleu Noir
01:18:31.320 : en:Diabolique mon ange
01:25:28.000 : en:Sans contrefacon
01:30:53.680 : en:Maman a tort
01:32:37.680 : en:Je t’aime melancolie
01:37:30.000 : en:XXL
01:39:12.000 : en:A l’ombre
01:43:54.600 : en:Inseparables
01:51:14.360 : en:Rever
01:56:02.600 : en:Endlessly
02:02:44.640 : en:End Credits
x264 [info]: frame I:2066 Avg QP:17.33 size: 97190
x264 [info]: frame P:47212 Avg QP:20.37 size: 40408
x264 [info]: frame B:140800 Avg QP:22.31 size: 15328
x264 [info]: consecutive B-frames: 4.4% 4.2% 10.2% 24.7% 17.6% 33.5% 4.1% 1.3%

Скріншоти





Джерело: Власний переклад
Особиста оцінка: 8 - мені сподобалося

Anonymous

Опублікувати 19-Чер-2022 15:30

[Цитувати]

Teren - Відеокліпи (2020-2021) WebRip 720p | Folk Metal Стиль: Folk Metal
Країна, місто: Україна, Кропивницький
Сайти: YouTube, Facebook, Instagram, Tik Tok
Виконавці: Teren
Учасники:
Альона Єрьоміна – вокал
Анна Аполярова-Гальченко – клавіші
Віталій Виштикайло (раніше був Сергій Снегірьов) – гітара і соло-гітара
Сергій Панченко – гітара
Денис Руденко – бас-гітара
Роман Білобров – барабани
Юлія Топонар – менеджер
Тривалість:
00:04:39 - Mara
00:05:13 - Ranok
00:03:25 - Pozanich
00:03:46 - Zhadoba
Якість: WEBRip
Відео:
кодек: AVC
розмір кадру: 1280 х 576
бітрейт:
1410 kbps - Mara
729 kbps - Ranok
453 kbps - Pozanich
1348 kbps - Zhadoba
Аудіо:
мова: українська
кодек: AAC 2.0
бітрейт: 128 kbps

Скріншоти





Джерело:
Особиста оцінка: 10 - супер круто! Послухайте, подивіться кліпи і вони вам сподобаються ))
Основна мета релізу - показати цей гурт та поширювати якісну українську музику!

Anonymous

Опублікувати 19-Чер-2022 15:30

[Цитувати]

[Rock] Друга Ріка | Відеографія (1999-2009) DVDRip Опис: ріп з офіційної збірки відеокліпів гурту Друга Ріка під назвою "Best". 10-річна історія гурту у відеокліпах.
Стиль: Alternative Rock
Країна, місто: Україна, Київ

Історія гурту

Гурт «Друга Ріка» був створений на початку 1996 року.
Історія цих музикантів не має нічого спільного з легендою «Прокинувся відомим!». Їх успіх – результат міцної дружби, багаторічної плідної праці та шаленою любові до музики.
Значною подією для гурту стала перемога на фестивалі «Майбутнє України» у 1999 році, де гурт посів перше місце сере більш ніж 100 претендентів.
Окрилена успіхом «Друга Ріка» записує дебютний альбом «Я є» та видає його восени 2000 року. Трекі «Впусти мене» та «Там де ти» першими отримали відео підтримку та швидко стали відомими.
В жовтні 2000 року гурт стає відкриттям фестивалю «Просто Рок».
В травні 2001 року гурт стає номінантом в категорії «Відкриття року» найпрестижнішої української музикальної премії «Золота Жар-Птиця».
В 2001 році гурт – номінант в категорії «Найкращий поп-гурт».
Влітку 2001 «ДР» розродилась піснею «Оксана», з якою тривалий час асоціювали гурт
В грудні 2002 року стартує сингл «Математика», котрий передує виходу нового альбому.
В березні 2003 року гурт підписує контракт з передовим українським лейблом Lavina Music та видає альбом «Два» - результат дворічної студійної роботи «ДР». В той самий час до гурту приєднується клавішник Сергій (Шура) Гера.
В червні 2003 року менеджмент Dave-а Gahan-а (вокаліста Depeche Mode) обирає гурт – в якості розігріва – для спільного виступу в Київі, під час свого світового «Paper Monster» туру.
Виступ на російсько-українському фестивалі «Рупор» у 2003 році було названо критиками одним з кращих за всю історію фестивалю, завдяки чому пісні гурту потрапляють до російського ефіру. Зокрема, на радіо «Maximum» хіт «Вже не сам» був в ефірі понад 3 місяці. Пісня «Вже не сам» стає народним хітом. Після тривалого мовчання «Друг Ріка» бере менеджмент гурту в свої руки. Результат не примусив на себе чекати – 26 квітня 2005 року компанія Lavina Music відає третій альбом «ДР» під назвою «Рекорди», котрий стає «золотим». Сингл «Так мало тут тебе» 32 тижні протримався в українських хіт-парадах. Наприклад, на «Gala Radio» пісня прозвучала понад 1000 разів.
Альбом щедрий на хіти. Пісня «П’ю з твоїх долонь» повертає «Другу Ріку» на російське MTV. «Спи до завтра» отримала відео підтримку з двох кліпів, а пісня «Три хвилини» повторила подвиг «Так мало тут тебе» - вона і досі активно замовляється в ротації.
В вересні 2005 року «ДР» перевидає свій «дебютник» «Я є» та включає раниш не видану «Не моя земля».
В листопаді 2006-го року виходить новий сингл «Денніч», котрий за короткий час (за результатами ФДР Радіо-Центра) стає кращою українською піснею і по цей день займає перші місця в національних хіт-парадах. В грудні 2006 року, з приводу свого десятиріччя, «Друга Ріка» випускає альбом з 13-ти своїх кращих пісень за всю історію гурту з головним треком «Денніч».
Гурт «Друга Ріка» неодноразово приймала участь в головному українському фестивалі «Таврійські Ігри». Пісні гурту тричі ставали «Піснею Року» на однойменному теле-фестивалі. «Друга Ріка» представляла Україну на міжнародних фестивалях в місті Gdansk 2004 (Польща) та «Слав'янский базар» 2005 (Білорусь).
За матеріалами офіційного сайту Другої Ріки
Виконавці: Валерій Харчишин - вокал, труба;
Олександр Баранівський (Корадо) - гітара;
Віктор Скуратівський - бас;
Олексій Дорошенко - ударні;
Сергій Гера (Шура) - клавішні;
Сергій Біліченко (Белік) - гітара.

Список кліпів:

1. Впусти мене (1999 р.)
2. Там, де ти (2000 р.)
3. Оксана (2001 р.)
4. Математика (2002 р.)
5. Вже не сам (2003 р.)
6. Шансон (2003 р.)
7. Так мало тут тебе(2005 р.)
8. Спи до завтра (2005 р.)
9. П`ю з твоїх долонь (2005 р.)
10. Три хвилини (2006 р.)
11. Деннiч (2006 р.)
12. Вiдчиняй (Друга Ріка & Jazzex 2007 р.)
13. Кiнець свiту (2007 р.)
14. Фурiя (2008 р.)
15. Пропоную мир (2008 р.)
16. Доженемо! (Друга Ріка & Tokio 2008 р.)
17. Космоzoo (2009 р.)
Remakes
1. Математика (funky Егор Олесов mix /2003 р.)
2. артваЗ оД ипС (Спи до завтра Шура mix/2005 р.)
3. Впусти мене (dj chief mix/2003 р.)
Загальна тривалість: 01:14:13
Якість: DVDRip
Відео: розмір кадру: 720 х 464, кодек: Xvid, бітрейт: 2000-6000 кб/с.
Аудіо: кодек: mp3, бітрейт: 192 кб/с.Джерело:
Особиста оцінка: 10 - без зайвих вагань рекомендую всім!
Торрент-файл оновлено 7.05.2009! Тепер усі кліпи в DVD якості з офіційної DVD-збірки кліпів під назвою "Best".

Anonymous

Опублікувати 19-Чер-2022 15:30

[Цитувати]

Таїсія Повалій - Чарівна скрипка (2011) HDDVDRip | народна пісня Стиль:народна пісня
Країна, місто: Україна
Сайти:
Виконавці: Таїсія Повалій
Тривалість: 00:04:14
Якість: HDDVDRip
Відео:
кодек: AVC
розмір кадру: 1280 х 720
бітрейт: 2321кб/с
Аудіо:
мова: українська
кодек: AAC 2.0
бітрейт: 144 кб/с

Скріншоти

Джерело:
Особиста оцінка: 10 - без зайвих вагань рекомендую всім!

Anonymous

Опублікувати 19-Чер-2022 15:30

[Цитувати]

Руслана (Ruslana) ‎– Wild Energy / Амазонка (2008) DVD5 | Pop Стиль: Pop
Країна, місто: Україна
Сайти: http://www.ruslana.ua/
Виконавці: Руслана
Тривалість: 01:26:51
Відео:
кодек: MPEG-2 DVD
розмір кадру: 720 х 576
бітрейт: 2900 кб/с
Аудіо:
мова: українська
кодек: AC3 2.0
бітрейт: 192 кб/с

Скріншоти





Диск


Особиста оцінка: 8 - мені сподобалося

Anonymous

Опублікувати 19-Чер-2022 15:30

[Цитувати]

Крик Душі - Карантин (2011) HD Стиль: Christian, Alternative
Країна, місто: Україна, Рівне
Сайти:
Виконавці: Крик Душі
Тривалість: 00:03:32
Якість: HDDVDRip
Відео:
кодек: H.264
розмір кадру: 1280 х 580
бітрейт: 970 кб/с
Аудіо:
мова: українська
кодек: AAC
бітрейт: 128 кб/с
Скріншоти:[spoiler=""]


Джерело:
Особиста оцінка: 10 - без зайвих вагань рекомендую всім!

Anonymous

Опублікувати 19-Чер-2022 15:30

[Цитувати]

Орkеstp Янkи Козир - Маzепа-fest 2007 (9.06.2007р.) CAM Стиль: радісне театралізоване арт-готік-фолк-класик-рок-шоу
Країна: Україна
Виконавці: Орkеstp Янkи Козир
Сюжет: Виступ групи "Орkеstp Янkи Козир" у м. Полтава на фестивалі "Маzепа-fest" (9.06.2007р.). Із додаткової інформації можу зазначити те, що сам був на цьому фестивалі та бачив цей виступ наживо. Енергетика шалена. На жаль ОЯК більше на ?Мазепі? не виступатимуть, бо посварилися з організаторами.
Тривалість: 23:34
Якість: CAM
Відео:
кодек: H.263,
розмір: 320x248,
бітрейт: 489 кб/с
Аудіо:
мова: українська,
переклад: оригінал,
аудіо кодек: MP3,
бітрейт аудіо: 57 кб/с
Скріншоти: Особиста оцінка: 10 - рекомендую всім!!!

Anonymous

Опублікувати 19-Чер-2022 15:30

[Цитувати]

Сестри Тельнюк - Rehearsal (2010) DVD5 | ArtRock Стиль: Art Ethno Rock
Країна, місто: Україна, Київ
Виконавці: Леся та Галина Тельнюк
Тривалість: 01:04:00
Якість: DVD-5
Відео:
кодек: MPEG-2 DVD
розмір кадру: 720 х 576
бітрейт: ~ 5958.38 кб/c
Аудіо:
мова: українська
кодек: AC3 2.0
бітрейт: 384 кб/с
Треклист:
1. Кольоровий літак
2. Дівчатко-кленчатко
3. Я знаю...
4. Ластівка
5. Голос Твій...
6. Жовта кульбаба. Harlem
7. Вечірник
8. Тюльпани
bonus:
9. Зорелев
10. Найбіліший голуб
11. Ти ще живеш
Line-up:
Леся та Галина Тельнюк.
Музиканти:
Олег Путятін
Іван Небесний
Роман Суржа
Микола Томасишин.
Звукорежисер:
Костянтин Костенко
Скріншоти:

Відкрити:



Особиста оцінка: 10 - без зайвих вагань рекомендую всім!

Anonymous

Опублікувати 19-Чер-2022 15:30

[Цитувати]

Pink Floyd - Стіна / Pink Floyd The Wall (1982) BDRip 1080р H.265 Ukr/Eng | Sub Ukr/Eng Жанр: драма, музика
Країна: Великобританія

Кінокомпанія: Goldcrest Films International
Режисер: Алан Паркер (Alan Parker)
Актори: Боб Ґелдоф (Bob Geldof), Крістін Гарґрівес (Christine Hargreaves), Кевін МакКеон (Kevin McKeon), Боб Госкінс (Bob Hoskins), Давід Бінґгам (David Bingham) та інші.
Сюжет:Фільм, що став класикою жанру. Знятий Аланом Паркером у 1982 році, він є екранізацією однойменного альбому гурту " Pink Floyd " 1979 року.
Крок за кроком, спостерігаючи потік дитячих спогадів і лякаючих галюцинацій, ми занурюємося у свідомість Пінка - рок-зірки, чий внутрішній конфлікт і нетерпимість призводить спершу до соціальної, а потім і до психічної ізоляції. Фільм повний глибоких алегорій, у ньому дуже вдало поєднуються кінематографія і анімація.
Тривалість: 01:35:08
Якість: BDRip
Автор ріпу: ADVOKAT69
Відео:
кодек: H.265 (HEVC)
розмір кадру: 1920 x 800
бітрейт: 2 357 кб/с
бітова глибина: 10 біт-Увага! Перед завантаженням переконайтесь, що ваш пристрій відтворення (та/або ПЗ) підтримує H.265 (HEVC)-Аудіо # 1:
мова: українська
озвучення: одноголосе закадрове
кодек: AC-3 2.0
бітрейт: 192 кб/с
Аудіо # 2:
мова: англійська
озвучення: оригінал
кодек: DTS 5.1
бітрейт: 1510 кб/с
Субтитри # 1: (Full by Дмитро Шостак (Xo66um))
мова: українська
тип: програмні (м'які)
формат: *.srt
Субтитри # 2: (Full)
мова: англійська
тип: програмні (м'які)
формат: *.srt-

Світлини




-Джерело: &
Особиста оцінка: 10 - без зайвих вагань рекомендую всім!

Anonymous

Опублікувати 19-Чер-2022 15:30

[Цитувати]

Пінк Флойд (Pink Floyd) - (Obscured By Clouds) Прихована хмарами (1972\2016) WebRip | Art-Rock Стиль: Art
Країна, місто: Велика Британія, Лондон
Виконавці: Пінк Флойд
Тривалість: 40:32
Відео:
кодек: H.264
розмір кадру: 640 х 330
бітрейт: 165 кб/с
Аудіо:
мова: англійська
кодек: FLAC 2.0
бітрейт: 5 218 кб/с
Субтитри:
мова: українська
тип: програмні (м'які)
формат: *.srt
Menu:
00:00:00.000 : en:01. Obscured By Clouds
00:03:04.672 : en:02. When You're In
00:05:32.843 : en:03. Burning Bridges
00:09:01.254 : en:04. The Gold It's In The...
00:12:08.882 : en:05. Wot's... Uh The Deal
00:17:17.764 : en:06. Mudmen
00:21:38.764 : en:07. Childhood's End
00:26:12.764 : en:08. Free Four
00:30:28.764 : en:09. Stay
00:34:35.764 : en:10. Absolutely Curtains

Скріншоти



 

Поточний час: 04-Лип 21:42

Часовий пояс: UTC ± 0