Пошук знайшов 500 збігів

Автор Повідомлення

Anonymous

Опублікувати 13-Чер-2022 09:26

[Цитувати]

WaW - War against war (2022) WebDL Ukr/Eng (збірка мультиформатних відео)Жанр: документальний, історичний
Країна: Україна
Телеканал / кіностудія: WaW
Сюжет: Українські креативники, журналісти, режисери та піарники об’єдналися та створили "інформаційний полк" для інформування про війну та висвітлення війни за кордоном та в Україні.
Це поки не повноцінний реліз - скоріше "збірка завантажених і дещо впорядкованих відеоматеріалів".
Більшість відео представлені у декількох різних форматах і мовах (через це - великий розмір роздачі).
Після війни реліз буде розбито на декілька значно менших - за розміром/орієнтацією кадру (горизонтальні, вертикальні) і за мовою.
(Ну або якщо є охочі зараз - робіть компактніші релізи з цього матеріалу.)
Відео корисні не лише для поточного інформування закордонних колег і знайомих про війну, але також як інформаційно-документальні матеріали про перебіг війни.
Технічні параметри відео вказані для одного із файлів - усі інші або порівнювані, або менші.
Відео переважно короткі, 1-2 хвилини.
Мови у різних відео - різні, найчастіше українська, англійська.
Папки датовані за днем публікації. Назви файлів максимально збережено оригінальні.
На момент створення релізу включено всі відеоматеріали від початку війни до кінця березня.
Торент буде оновлюватися - у найближчих планах включити всі матеріали за квітень.
Джерела скачування:
- https://t.me/WAW_WarAgainstWar
- https://linktr.ee/war_against_war
P.S.
Маю інтерес документувати війну, щоб хтось потім міг зробити якісні документальні фільми - підкажіть (у коментах) найкращі джерела, звідки збирати матеріали.
Якщо ви вже займаєтеся документуванням - залучайте мене, буду допомагати.

Тривалість: 00:30:00
Якість: WebDL
Відео:
кодек: H.264
розмір кадру: 1920 х 1080
бітрейт: 18000 кб/с
Аудіо # 1:
мова: українська
кодек: AAC 2.0
бітрейт: 316 кб/с
Аудіо # 2:
мова: англійська
кодек: AAC 2.0
бітрейт: 316 кб/с
Субтитри:
мова: англійська
тип: вбудовані (жорсткі)

Скріншоти






Джерело:
Особиста оцінка: 0 - не дивився

Anonymous

Опублікувати 13-Чер-2022 09:26

[Цитувати]

Спекотний лютий 2015 (2021) WEBRip 1080p Жанр: документальний, воєнний
Країна: Україна
Кіностудія / кінокомпанія: Суспільне телебачення
Режисер: Сніжана Потапчук
Оператор-постановник: Світлана Коваль
Звукорежисери: Андрій Галіцьков, Наталія Варнавська
Водій Сергій Чупахін
Адміністратор Ірина Кошель
Технічне забезпечення: Катерина Опанасенко
Переклад: Світлана Дубик
Графічний дизайн: Ігор Грицак
Монтаж: Тетяна Залеська
Адміністративний продюсер: Денис Козаченко
Виконавчий продюсер: Катерина Феленюк
Сюжет:«Спекотний лютий 2015» – це документальний фільм Суспільного про офіцера-танкіста, командира танкового взводу Олексія Чабана. Коли у 2014 році почалася війна, він був фермером та працював на території Дніпропетровської області. Він вирішив, що не буде стояти осторонь, та пішов добровольцем захищати Україну. Олексію було 50, у нього – четверо дітей, тож спочатку у військкоматі відмовили. Та коли армія потребувала танкістів, його все-таки призвали. Так він потрапив до 17-ї окремої танкової бригади, де пройшов своє «бойове хрещення».Тривалість: ~ 00:50:50
Якість: WEBRip 1080p
Відео:
кодек: H.264
розмір кадру: 1920 х 1080
бітрейт: ~1972 кб/с;
частота кадрів: 25 к/с (fps)
Аудіо #1:
мова: українська, російська
переклад: оригінал
кодек: AAC 2.0
бітрейт: 128 кб/с
Субтитри #2:
мова: українська
тип: вбудовані (жорсткі)

Media info:

General
Unique ID : 270319053807207024361775452052065140126 (0xCB5D8E57C1E85AAE56F04D6619B4BD9E)
Format : Matroska
Format version : Version 4
File size : 764 MiB
Duration : 50 min 50 s
Overall bit rate : 2 102 kb/s
Movie name : Спекотний лютий 2015 by mazepa.to
Encoded date : UTC 2022-02-20 15:10:08
Writing application : mkvmerge v51.0.0 ('I Wish') 32-bit
Writing library : libebml v1.4.0 + libmatroska v1.6.2
Cover : Yes
Attachments : cover.jpeg
Video
ID : 1
Format : AVC
Format/Info : Advanced Video Codec
Format profile :
Format settings : CABAC / 3 Ref Frames
Format settings, CABAC : Yes
Format settings, Reference : 3 frames
Codec ID : V_MPEG4/ISO/AVC
Duration : 50 min 50 s
Bit rate : 1 972 kb/s
Width : 1 920 pixels
Height : 1 080 pixels
Display aspect ratio : 16:9
Frame rate mode : Constant
Frame rate : 25.000 FPS
Color space : YUV
Chroma subsampling : 4:2:0
Bit depth : 8 bits
Scan type : Progressive
Bits/(Pixel*Frame) : 0.038
Stream size : 717 MiB (94%)
Writing library : x264 core 155 r2901 7d0ff22
Language : Ukrainian
Default : Yes
Forced : No
Color range : Limited
Color primaries : BT.709
Transfer characteristics : BT.709
Matrix coefficients : BT.709
Audio
ID : 2
Format : AAC LC
Format/Info : Advanced Audio Codec Low Complexity
Codec ID : A_AAC-2
Duration : 50 min 50 s
Bit rate : 128 kb/s
Channel(s) : 2 channels
Channel layout : L R
Sampling rate : 44.1 kHz
Frame rate : 43.066 FPS (1024 SPF)
Compression mode : Lossy
Stream size : 46.5 MiB (6%)
Language : Ukrainian
Default : Yes
Forced : No

Скріншоти:






Семпл:

Джерело 1_______Джерело 2_______Джерело 3_______Джерело 4_______Джерело 5_______Джерело 6_______Джерело 7
У випадку, якщо з усіх джерел семпл видалять, прохання повідомити мені у ПРИВАТ
Подяка:1. Пану sergiyko.5 за створення релізуРеліз створено:
Реліз створено за підтримки BMK12

Anonymous

Опублікувати 13-Чер-2022 09:26

[Цитувати]

Земля блакитна, ніби апельсин / The Earth Is Blue as an Orange (2020) WEBRip 1080p Жанр: документальний, історичний, воєнний
Країна: Україна, Литва
Кіностудія / кінокомпанія: Альбатрос Комунікос, Мунмейкерс
Режисер: Ірина Цілик (Iryna Tsilyk)

Сюжет:Дебютна документальна полнометражка Ірини Цілик не тільки стала першим українським проектом, представленим на конкурсі найпрестижнішого кінофестивалю незалежного кіно "Санденс", а й отримав нагороду за кращу режисуру документального фільму. У центрі сюжету - історія родини, яка мешкає в Красногорівці, містечку в "червоній зоні" Донбасу, де військові дії тривають шостий рік. За ці роки половина міста перетворилася на руїни, друга частина - намагається вести звичайний спосіб життя. Попри тяготи і безперервні обстріли, Анна і її четверо дітей залишаються дружними й життєрадісними. Абстрагуватися від навколишнього сюрреалізму їм допомагають захоплення, музика і фільм, що вони знімають про своє життя у прифронтовій зоні...Тривалість: ~ 01:14:19
Якість: WEBRip 1080p
Відео:
кодек: H.264
розмір кадру: 1920 х 1080
бітрейт: ~11.2 мб/с;
частота кадрів: 25 к/с (fps)
Аудіо #1:
мова: українська, російська
переклад: оригінал
кодек: AAC 2.0
бітрейт: 299 кб/с

Скріншоти:






Семпл:

Джерело 1_______Джерело 2_______Джерело 3_______Джерело 4_______Джерело 5_______Джерело 6_______Джерело 7
У випадку, якщо з усіх джерел семпл видалять, прохання повідомити мені у ПРИВАТ
Подяка:1. Пану sergiyko.5 за створення релізуРеліз створено:
Реліз створено за підтримки BMK12

Anonymous

Опублікувати 13-Чер-2022 09:26

[Цитувати]

Позивний Італієць (2020) HDTVRip 1080p Жанр: документальний, історичний, воєнний
Країна: Україна
Кіностудія / кінокомпанія: BeeSeen Production
Режисери: Тетяна Терещенко, Ігор Свиридов
Сюжет:Головною у сюжеті показана драма українського нацгвардійця Віталія Марківа. Він з 11 років жив і навчався в Італії, а на початку грудня 2014 року приїхав на Майдан. Під час сутичок у Маріїнському парку в ході Революції Гідності отримав поранення. З початком окупації Росією Криму увійшов добровольцем до першого резервного батальйону відновленої Нацгвардії України (нині батальйон імені Кульчицького). Під час активної оборони панівної висоти (гори Карачун) над Слов'янськом, де розташований телевізійний радіопередавальний центр, на початку травня 2014 року разом із десантниками 95-ї окремої десантно-штурмової бригади Збройних Сил України тримав оборону від наступу російських бойовиків й Віталій Марків.
У фільмі використано рідкісні фото і відео з особистого архіву В. Марківа, ексклюзивні фото і відео зняті самим автором на горі Карачун під час активних бойовий дій наприкінці травня 2014 року, унікальні спогади співслужбовців В. Марківа, інтерв'ю міністра внутрішніх справ Арсена Авакова, хроніка судових засідань тощо
Тривалість: ~ 00:55:39
Якість: HDTVRip 1080p
Відео:
кодек: H.264
розмір кадру: 1920 х 1080
бітрейт: ~3936 кб/с;
частота кадрів: 25 к/с (fps)
Аудіо #1:
мова: українська, російська
переклад: оригінал
кодек: AAC 2.0
бітрейт: 256 кб/с

Media info:

General
Unique ID : 236464448874480676932915213906183339145 (0xB1E56573113F0599D1BD8F0E121E3C89)
Complete name : D:\Позивний Італієць.2020.HDTVRip.1080p-mazepa.mkv
Format : Matroska
Format version : Version 4
File size : 1.63 GiB
Duration : 55 min 39 s
Overall bit rate mode : Variable
Overall bit rate : 4 194 kb/s
Movie name : Позивний Італієць 2020 by mazepa.to
Encoded date : UTC 2021-03-26 22:03:01
Writing application : mkvmerge v51.0.0 ('I Wish') 32-bit
Writing library : libebml v1.4.0 + libmatroska v1.6.2
Video
ID : 1
Format : AVC
Format/Info : Advanced Video Codec
Format profile :
Format settings : CABAC / 3 Ref Frames
Format settings, CABAC : Yes
Format settings, Reference : 3 frames
Format settings, GOP : M=1, N=50
Codec ID : V_MPEG4/ISO/AVC
Duration : 55 min 38 s
Bit rate mode : Variable
Bit rate : 3 936 kb/s
Maximum bit rate : 4 799 kb/s
Width : 1 920 pixels
Height : 1 080 pixels
Display aspect ratio : 16:9
Frame rate mode : Constant
Frame rate : 25.000 FPS
Color space : YUV
Chroma subsampling : 4:2:0
Bit depth : 8 bits
Scan type : Progressive
Bits/(Pixel*Frame) : 0.076
Stream size : 1.53 GiB (94%)
Language : Ukrainian
Default : No
Forced : No
Audio
ID : 2
Format : AAC LC
Format/Info : Advanced Audio Codec Low Complexity
Codec ID : A_AAC-2
Duration : 55 min 39 s
Bit rate : 256 kb/s
Channel(s) : 2 channels
Channel layout : L R
Sampling rate : 44.1 kHz
Frame rate : 43.066 FPS (1024 SPF)
Compression mode : Lossy
Stream size : 102 MiB (6%)
Language : Ukrainian
Default : Yes
Forced : No

Скріншоти:






Семпл:

Джерело 1_______Джерело 2_______Джерело 3_______Джерело 4_______Джерело 5_______Джерело 6_______Джерело 7
У випадку, якщо з усіх джерел семпл видалять, прохання повідомити мені у ПРИВАТ
Подяка:1. Пану sergiyko.5 за створення релізуРеліз створено:
Реліз створено за підтримки BMK12

Anonymous

Опублікувати 13-Чер-2022 09:26

[Цитувати]

Трохи нижче неба (2020) HDTVRip 1080p Жанр: документальний
Країна: Україна
Режисер: Руслан Горовий
Сюжет:Фільм про воїнів, які воювали в Донецькому аеропорту.
В історію фільму ввійшли історії 4 бійців 80 бригади ЗСУ та їх побратимів, які до останнього дня боронили ДАП, а дехто потім попав в полон.
Тривалість: ~ 00:57:07
Якість: HDTVRip 1080p
Відео:
кодек: H.264
розмір кадру: 1920 х 1080
бітрейт: ~3977 кб/с;
частота кадрів: 25 к/с (fps)
Аудіо #1:
мова: українська, російська
переклад: оригінал
кодек: AAC 2.0
бітрейт: 257 кб/с

Media info:

General
Unique ID : 332411498201455772664412967295873398241 (0xFA142036087DD7E0D3FE3FE8A34335E1)
Complete name : D:\Трохи нижче неба.2020.HDTVRip.1080p-mazepa.mkv
Format : Matroska
Format version : Version 4
File size : 1.69 GiB
Duration : 57 min 7 s
Overall bit rate mode : Variable
Overall bit rate : 4 237 kb/s
Movie name : Трохи нижче неба 2020 by mazepa.to
Encoded date : UTC 2021-03-13 14:37:35
Writing application : mkvmerge v51.0.0 ('I Wish') 32-bit
Writing library : libebml v1.4.0 + libmatroska v1.6.2
Video
ID : 1
Format : AVC
Format/Info : Advanced Video Codec
Format profile :
Format settings : CABAC / 3 Ref Frames
Format settings, CABAC : Yes
Format settings, Reference : 3 frames
Format settings, GOP : M=1, N=50
Codec ID : V_MPEG4/ISO/AVC
Duration : 57 min 7 s
Bit rate mode : Variable
Bit rate : 3 977 kb/s
Maximum bit rate : 4 799 kb/s
Width : 1 920 pixels
Height : 1 080 pixels
Display aspect ratio : 16:9
Frame rate mode : Constant
Frame rate : 25.000 FPS
Color space : YUV
Chroma subsampling : 4:2:0
Bit depth : 8 bits
Scan type : Progressive
Bits/(Pixel*Frame) : 0.077
Stream size : 1.59 GiB (94%)
Language : Ukrainian
Default : Yes
Forced : No
Audio
ID : 2
Format : AAC LC
Format/Info : Advanced Audio Codec Low Complexity
Codec ID : A_AAC-2
Duration : 57 min 7 s
Bit rate : 257 kb/s
Channel(s) : 2 channels
Channel layout : L R
Sampling rate : 44.1 kHz
Frame rate : 43.066 FPS (1024 SPF)
Compression mode : Lossy
Stream size : 105 MiB (6%)
Language : Ukrainian
Default : Yes
Forced : No

Скріншоти:







Семпл:

Джерело 1_______Джерело 2_______Джерело 3_______Джерело 4_______Джерело 5_______Джерело 6_______Джерело 7
У випадку, якщо з усіх джерел семпл видалять, прохання повідомити мені у ПРИВАТ
Подяка:1. Пану sergiyko.5 за створення релізуРеліз створено:
Реліз створено за підтримки BMK12

Anonymous

Опублікувати 13-Чер-2022 09:26

[Цитувати]

Висота 307.5 (2019) WEB-DL 1080p Жанр: історичний, документальний
Країна: Україна
Телеканал / кіностудія: 1+1 media та Міністерство Культури України
Режисер: Євгенія Цвєтанська
Сюжет:В основі сюжету документального фільму події одного з найважчих боїв за роки окупації – протистояння агресору 25 січня 2015 року в Дебальцевому. Тоді українські воїни кілька днів утримували під контролем стратегічну висоту 307.5, яку між собою вони назвали “Валєра”, аби українські воїни змогли вийти з оточення.Тривалість: 00:59:35
Якість: WEBDLRip
Відео:
кодек: H.264
розмір кадру: 1920 х 1080
бітрейт: 4170 кб/с
Аудіо:
мова: українська
кодек: AAC 2.0
бітрейт: 192 кб/с

MediaInfo

General
Format : Matroska
Format version : Version 4
File size : 1.74 GiB
Duration : 59 min 35 s
Overall bit rate : 4 170 kb/s
Movie name : Висота 307.5.2019 by mazepa.to
Encoded date : UTC 2021-04-14 21:35:40
Writing application : mkvmerge v38.0.0 ('The Silent Type') 64-bit
Writing library : libebml v1.3.9 + libmatroska v1.5.2
Video
ID : 1
Format : AVC
Format/Info : Advanced Video Codec
Format profile :
Format settings : CABAC / 4 Ref Frames
Format settings, CABAC : Yes
Format settings, Reference fra : 4 frames
Codec ID : V_MPEG4/ISO/AVC
Duration : 59 min 35 s
Bit rate : 4 000 kb/s
Width : 1 920 pixels
Height : 1 080 pixels
Display aspect ratio : 16:9
Frame rate mode : Variable
Frame rate : 24.824 FPS
Color space : YUV
Chroma subsampling : 4:2:0
Bit depth : 8 bits
Scan type : Progressive
Bits/(Pixel*Frame) : 0.078
Stream size : 1.65 GiB (95%)
Title : AAC 2.0ch
Writing library : x264 core 155 r2917 0a84d98
Encoding settings : cabac=1 / ref=3 / deblock=1:0:0 / analyse=0x3:0x113 / me=hex / subme=7 / psy=1 / psy_rd=1.00:0.00 / mixed_ref=1 / me_range=16 / chroma_me=1 / trellis=1 / 8x8dct=1 / cqm=0 / deadzone=21,11 / fast_pskip=1 / chroma_qp_offset=-2 / threads=12 / lookahead_threads=2 / sliced_threads=0 / nr=0 / decimate=1 / interlaced=0 / bluray_compat=0 / constrained_intra=0 / bframes=3 / b_pyramid=2 / b_adapt=1 / b_bias=0 / direct=1 / weightb=1 / open_gop=0 / weightp=2 / keyint=75 / keyint_min=25 / scenecut=40 / intra_refresh=0 / rc=2pass / mbtree=0 / bitrate=4000 / ratetol=1.0 / qcomp=0.60 / qpmin=0 / qpmax=69 / qpstep=4 / cplxblur=20.0 / qblur=0.5 / ip_ratio=1.40 / pb_ratio=1.30 / aq=1:1.00
Language : Ukrainian
Default : Yes
Forced : No
Audio
ID : 2
Format : AAC LC
Format/Info : Advanced Audio Codec Low Complexity
Codec ID : A_AAC-2
Duration : 59 min 35 s
Bit rate : 192 kb/s
Channel(s) : 2 channels
Channel layout : L R
Sampling rate : 48.0 kHz
Frame rate : 46.875 FPS (1024 SPF)
Compression mode : Lossy
Delay relative to video : -80 ms
Stream size : 81.8 MiB (5%)
Language : Ukrainian
Default : Yes
Forced : No

Скріншоти






Джерело:
Особиста оцінка: 10 - без зайвих вагань рекомендую всім!

Anonymous

Опублікувати 13-Чер-2022 09:26

[Цитувати]

Бойові Родини (4 серії) (2019) WEB-DL 1080p Жанр: історичний, документальний
Країна: Україна
Телеканал / кіностудія: Український Культурний Фонд, 1+1
Режисер: Євгенія Цвєтанська
Актори: -
Сюжет:Цикл документальних фільмів під назвою Бойові Родини був створений спеціально до Дня Збройних Сил України. Кожен фільм присвячено окремому підрозділу ЗСУ. Автори проєкту використовують інтерв'ю не тільки з військовослужбовцями із зони бойових дій, які розповідають про пережиті події, але й інші цікаві матеріали. Тривалість: однієї серії 00:26:00 (всього 4 з 4)
Якість: WEBDLRip
Відео:
кодек: H.264
розмір кадру: 1920 х 1080
бітрейт: 3546 кб/с
Аудіо:
мова: українська
переклад: оригінал
кодек: AAC 2.0
бітрейт: 192 кб/с

Скріншоти







MediaInfo

General
Unique ID : 162248903963537647266019972810171571828 (0x7A10009407586E4CD6374D9704B95E74)
Complete name : X:\Toloka\Bojovi rodunu\Artulerija_S01E02 WEB-DL.1080p [Hurtom].mkv
Format : Matroska
Format version : Version 4
File size : 757 MiB
Duration : 25 min 22 s
Overall bit rate : 4 174 kb/s
Movie name : S01E02.Артилерія. by mazepa.to
Encoded date : UTC 2021-12-23 06:17:43
Writing application : mkvmerge v51.0.0 ('I Wish') 32-bit
Writing library : libebml v1.4.0 + libmatroska v1.6.2
Video
ID : 1
Format : AVC
Format/Info : Advanced Video Codec
Format profile :
Format settings : CABAC / 4 Ref Frames
Format settings, CABAC : Yes
Format settings, Reference fra : 4 frames
Codec ID : V_MPEG4/ISO/AVC
Duration : 25 min 22 s
Bit rate : 4 000 kb/s
Width : 1 920 pixels
Height : 1 080 pixels
Display aspect ratio : 16:9
Frame rate mode : Variable
Frame rate : 24.819 FPS
Color space : YUV
Chroma subsampling : 4:2:0
Bit depth : 8 bits
Scan type : Progressive
Bits/(Pixel*Frame) : 0.078
Stream size : 722 MiB (95%)
Writing library : x264 core 155 r2917 0a84d98
Encoding settings : cabac=1 / ref=3 / deblock=1:0:0 / analyse=0x3:0x113 / me=hex / subme=7 / psy=1 / psy_rd=1.00:0.00 / mixed_ref=1 / me_range=16 / chroma_me=1 / trellis=1 / 8x8dct=1 / cqm=0 / deadzone=21,11 / fast_pskip=1 / chroma_qp_offset=-2 / threads=12 / lookahead_threads=2 / sliced_threads=0 / nr=0 / decimate=1 / interlaced=0 / bluray_compat=0 / constrained_intra=0 / bframes=3 / b_pyramid=2 / b_adapt=1 / b_bias=0 / direct=1 / weightb=1 / open_gop=0 / weightp=2 / keyint=75 / keyint_min=25 / scenecut=40 / intra_refresh=0 / rc=2pass / mbtree=0 / bitrate=4000 / ratetol=1.0 / qcomp=0.60 / qpmin=0 / qpmax=69 / qpstep=4 / cplxblur=20.0 / qblur=0.5 / ip_ratio=1.40 / pb_ratio=1.30 / aq=1:1.00
Language : Ukrainian
Default : Yes
Forced : No
Audio
ID : 2
Format : AAC LC
Format/Info : Advanced Audio Codec Low Complexity
Codec ID : A_AAC-2
Duration : 25 min 22 s
Bit rate : 192 kb/s
Channel(s) : 2 channels
Channel layout : L R
Sampling rate : 48.0 kHz
Frame rate : 46.875 FPS (1024 SPF)
Compression mode : Lossy
Stream size : 34.8 MiB (5%)
Language : Ukrainian
Default : Yes
Forced : No
Джерело:
Особиста оцінка: 10 - без зайвих вагань рекомендую всім!

Anonymous

Опублікувати 13-Чер-2022 09:26

[Цитувати]

На схід (2019) WEB-DL 1080p Жанр: історичний, документальний
Країна: Україна
Телеканал / кіностудія: For Post за підтримки Міністерства Культури України
Режисер: Вадим Єрмоленко
Актори: -
Сюжет:Кілька разів на місяць Андрій сідає у потяг і їде на війну… Це подорож на фронт — Андрій везе танкістам і артилерії систему наведення, яку сам сконструював. Водночас — це подорож в минуле. Андрій, тоді звичайний цивільний хлопець, брав участь в обороні Луганського та Донецького літовищ. Був тяжко поранений, і боротьба за незалежність країни стала метою його життя. Але життя його навіки пов’язане з тією частиною нашої країни, куди він і прямує — НА СХІД.Тривалість: 00:56:00
Якість: WEBDLRip
Відео:
кодек: H.264
розмір кадру: 1920 х 1080
бітрейт: 7800 кб/с
Аудіо:
мова: українська
переклад: оригінал
кодек: AAC 2.0
бітрейт: 160 кб/с

Скріншоти




MediaInfo

General
Unique ID : 309898796641213099005471320187422352974 (0xE9245653ECB4CE7DF929F238D49BA64E)
Complete name : X:\Toloka\Na Shid (2019) WEB-DL 1080p [Hurtom].mkv
Format : Matroska
Format version : Version 4
File size : 3.11 GiB
Duration : 56 min 0 s
Overall bit rate : 7 961 kb/s
Movie name : На схід.2019 by mazepa.to
Encoded date : UTC 2021-12-23 06:33:46
Writing application : mkvmerge v51.0.0 ('I Wish') 32-bit
Writing library : libebml v1.4.0 + libmatroska v1.6.2
Video
ID : 1
Format : AVC
Format/Info : Advanced Video Codec
Format profile :
Format settings : CABAC / 6 Ref Frames
Format settings, CABAC : Yes
Format settings, Reference fra : 6 frames
Codec ID : V_MPEG4/ISO/AVC
Duration : 56 min 0 s
Bit rate : 7 800 kb/s
Width : 1 920 pixels
Height : 1 080 pixels
Display aspect ratio : 16:9
Frame rate mode : Constant
Frame rate : 25.000 FPS
Color space : YUV
Chroma subsampling : 4:2:0
Bit depth : 8 bits
Scan type : Progressive
Bits/(Pixel*Frame) : 0.150
Stream size : 3.05 GiB (98%)
Writing library : x264 core 148 r2795 aaa9aa8
Encoding settings : cabac=1 / ref=6 / deblock=1:0:0 / analyse=0x3:0x113 / me=hex / subme=7 / psy=1 / psy_rd=1.00:0.00 / mixed_ref=1 / me_range=16 / chroma_me=1 / trellis=1 / 8x8dct=1 / cqm=0 / deadzone=21,11 / fast_pskip=1 / chroma_qp_offset=-2 / threads=12 / lookahead_threads=2 / sliced_threads=0 / nr=0 / decimate=1 / interlaced=0 / bluray_compat=0 / constrained_intra=0 / bframes=3 / b_pyramid=2 / b_adapt=1 / b_bias=0 / direct=1 / weightb=1 / open_gop=0 / weightp=2 / keyint=75 / keyint_min=7 / scenecut=0 / intra_refresh=0 / rc_lookahead=40 / rc=2pass / mbtree=1 / bitrate=7800 / ratetol=1.0 / qcomp=0.60 / qpmin=0 / qpmax=69 / qpstep=4 / cplxblur=20.0 / qblur=0.5 / ip_ratio=1.41 / aq=1:1.00
Language : Ukrainian
Default : Yes
Forced : No
Audio
ID : 2
Format : AAC LC
Format/Info : Advanced Audio Codec Low Complexity
Codec ID : A_AAC-2
Duration : 56 min 0 s
Bit rate : 160 kb/s
Channel(s) : 2 channels
Channel layout : L R
Sampling rate : 48.0 kHz
Frame rate : 46.875 FPS (1024 SPF)
Compression mode : Lossy
Delay relative to video : -80 ms
Stream size : 64.1 MiB (2%)
Language : Ukrainian
Default : Yes
Forced : No
Джерело:
Особиста оцінка: 10 - без зайвих вагань рекомендую всім!

Anonymous

Опублікувати 13-Чер-2022 09:26

[Цитувати]

Я - Історія. Шумлять Жорна (2021) WEB-DL 1080p Відчуйте історію, побачте смак!Жанр: документальний, навчальний (історія, кулінарія)
Країна: Україна
Телеканал / кіностудія: То-Сьо
Режисер: Руслан Плясуля
Сценарій: Руслан Плясуля, Олег Тищенко
Оператор: Павло Осіпов
Актори: Олег Тищенко, Сергій Солдаткін, Олександр Чижевський, Поліна Шостак, Олексій Заворотній
Сюжет:Епізод присвячений кухні Української повстанської армії 1940-х років. В бесіді Олег Тищенко, директор Здолбунівського історико-краєзнавчого музею, та Сергій Солдаткін, один з кращих шеф-кухарів України, розкривають побут та устрій постачання продуктів в УПА, причини та обставини бою під Гурбами і його наслідки, і звісно, проводять неймовірний кулінарний експеримент, надаючи сучасного звучання повстанській екстремальній кухні – кухні свободи! Відчуйте історію, побачте смак!
У відео представлені наступні страви: грінки з жолудевого хлібу з пряним смальцем, шкварками, смаженими лисичками та міксом дикоросів з чорнобривцями; узвар з карамелізованою яблучною сушкою, перцевою м’ятою та лісовою мелісою; капустина нашпигована гострим перцем, дикоросами та часником, обуглена на відкритому вогні; короп та жаби смажені у топленому смальці з чіпсами з луски, шкіри жаби, кропиви, тисячолисника та огіркової трави; уапустяна чорна сіль з попелом
Тривалість: 00:45:54
Якість: WEBDLRip (оригінал)
Відео:
кодек: AVC/H.264
розмір кадру: 1920х1080
бітрейт: 24.7 мб/с
Аудіо # 1:
мова: Українська
переклад: Оригінал
кодек: AAC 2.0
бітрейт: 317 кб/сСкріншоти:

Додаткові скріншоти:

Джерело: & офіційний реліз від То-Сьо на Toloka.to
Особиста оцінка: 10 - без зайвих вагань рекомендую всім!

Anonymous

Опублікувати 13-Чер-2022 09:26

[Цитувати]

Вусатий фанк / Mustache Funk (2021) WEBDLRip 1080p Жанр: історичний, документальний
Країна: Україна
Телеканал / кіностудія: Т.Т.М.
Режисер: Олександр Ковш
Актори: нарізка інтерв'ю з учасниками гуртів Смерічка, Березень, Дзвони, Водограй, Мрія, Світязь, Жива вода, Беркут, Візерунки шляхів, Музики, Кобза, Арніка
Сюжет:«Вусатий фанк» – це влучна розповідь про самобутню українську музику, яку намагалися обмежити рамками вокально-інструментального ансамблю, проте вона була значно цікавішою та прогресивнішою, ніж радянські погляди на культуру.Тривалість: 01:13:00
Якість: WEBDLRip
Відео:
кодек: H.264
розмір кадру: 1920 х 1080
бітрейт: 4400 кб/с
Аудіо:
мова: українська, кацапська
переклад: оригінал
кодек: AAC 2.0
бітрейт: 125 кб/с

Скріншоти



MediaInfo

General
Complete name : Mustache Funk.2021.1080p.WebDLRip.h264.ukr.mp4
Format : MPEG-4
Format profile : Base Media
Codec ID : isom (isom/iso2/avc1/mp41)
File size : 2.27 GiB
Duration : 1 h 13 min
Overall bit rate : 4 443 kb/s
Writing application : Lavf58.76.100
Video
ID : 1
Format : AVC
Format/Info : Advanced Video Codec
Format profile :
Format settings : CABAC / 5 Ref Frames
Format settings, CABAC : Yes
Format settings, Reference frames : 5 frames
Codec ID : avc1
Codec ID/Info : Advanced Video Coding
Duration : 1 h 13 min
Bit rate : 4 312 kb/s
Width : 1 920 pixels
Height : 1 080 pixels
Display aspect ratio : 16:9
Frame rate mode : Variable
Frame rate : 29.970 (29970/1000) FPS
Minimum frame rate : 5.994 FPS
Maximum frame rate : 120.000 FPS
Color space : YUV
Chroma subsampling : 4:2:0
Bit depth : 8 bits
Scan type : Progressive
Bits/(Pixel*Frame) : 0.069
Stream size : 2.20 GiB (97%)
Writing library : x264 core 164 r10 ae03d92
Encoding settings : cabac=1 / ref=5 / deblock=1:0:0 / analyse=0x3:0x113 / me=hex / subme=8 / psy=1 / psy_rd=1.00:0.00 / mixed_ref=1 / me_range=16 / chroma_me=1 / trellis=2 / 8x8dct=1 / cqm=0 / deadzone=21,11 / fast_pskip=1 / chroma_qp_offset=-2 / threads=34 / lookahead_threads=5 / sliced_threads=0 / nr=0 / decimate=1 / interlaced=0 / bluray_compat=0 / stitchable=1 / constrained_intra=0 / bframes=3 / b_pyramid=2 / b_adapt=2 / b_bias=0 / direct=3 / weightb=1 / open_gop=0 / weightp=2 / keyint=infinite / keyint_min=29 / scenecut=40 / intra_refresh=0 / rc_lookahead=50 / rc=crf / mbtree=1 / crf=20.0 / qcomp=0.60 / qpmin=5 / qpmax=69 / qpstep=4 / vbv_maxrate=5500 / vbv_bufsize=15000 / crf_max=0.0 / nal_hrd=none / filler=0 / ip_ratio=1.40 / aq=1:1.00
Color range : Limited
Color primaries : BT.709
Transfer characteristics : BT.709
Matrix coefficients : BT.709
Codec configuration box : avcC
Audio
ID : 2
Format : AAC LC
Format/Info : Advanced Audio Codec Low Complexity
Codec ID : mp4a-40-2
Duration : 1 h 13 min
Bit rate mode : Constant
Bit rate : 125 kb/s
Channel(s) : 2 channels
Channel layout : L R
Sampling rate : 48.0 kHz
Frame rate : 46.875 FPS (1024 SPF)
Compression mode : Lossy
Stream size : 65.5 MiB (3%)
Default : Yes
Alternate group : 1
Джерело:
Особиста оцінка: 10 - без зайвих вагань рекомендую всім!

Anonymous

Опублікувати 13-Чер-2022 09:26

[Цитувати]

Паратіхіон (2019) IPTVRemux Жанр: документальний, історичний
Країна: Україна
Телеканал / кіностудія: Український культурний фонд, ТОВ «Атасов Фільм Тревел»
Автор сценарію: Олег Базилевич
Режисер-постановник: Тетяна Сучкова
Актори: Роман Шуйц, Олег Базилевич, Олександр Савенков, Володимир Діденко, Роман Якимчук, Володимир Чернявка, Озбек Ялчин, Юрій Кравченко
Локація: Київ, Стамбул (Туреччина), Флоренція (Італія)
Сюжет:Документальний фільм «‎Паратіхіон» — дослідження та реконструкція подій, які призвели до завоювання турками Константинополя у 1453 році, руйнування московитами Київської Метрополії. Кінострічка розповідає про життя і долю Нестора-Іскандера — ченця, воїна та письменника, допомагає по-новому осмислити ключові події минулого.Тривалість: 00:59:14
Якість: IPTVRemux
Відео:
кодек: H.264
розмір кадру: 1047х576
бітрейт: 1567 кб/с
Аудіо:
мова: українська
переклад: оригінал
кодек: AAC 2.0
бітрейт: 162 кб/с
Субтитри:
мова: українська (на інші мови)
тип: вбудовані (жорсткі)

Скріншоти






Джерело:

Anonymous

Опублікувати 13-Чер-2022 09:25

[Цитувати]

Євген Патон. Шлях до мрії (2010) IPTVRemux Жанр: документальний, історичний
Країна: Україна
Телеканал / кіностудія: FILM.UA Group
Режисер: Олександр Усик, Віра Яковенко
Сюжет:Переправа, переправа - берег лівий, берег правий. Сучасний Київ навряд чи можливо уявити без мостів через Дніпро. Мости, як кровоносні судини, об'єднують місто в єдиний організм. Безумовно, однією з найважливіших артерій всього міста є міст ім. Патона. Пропускна здатність цього моста сьогодні становить близько 90 000 автомобілів в день. Але навряд чи хтось із нас замислюється, а яким був чоловік, під керівництвом якого звели таку важливу конструкцію? Мало хто знає, що, народившись за кордоном і здобувши освіту «в країнах загниваючого капіталізму», Євген Патон був нагороджений найвищими радянськими нагородами. Документальний фільм «Євген Патон. Шлях до мрії» розповідає дивовижну і красиву історію життя. Життя, присвяченого батьківщині. Життя, осяяного мрією. Стрічка складається не просто з документальних зйомок, розташованих у хронологічному порядку та коментарів експертів, а розкриває, насамперед, історію людини, яка через все життя пронесла свою мрію і змогла втілити її в якості фінального акорду свого життя.Тривалість: 00:40:51
Якість: IPTVRemux [російський відеоряд]
Відео:
кодек: H.264
розмір кадру: х576
бітрейт: 1036 кб/с
Аудіо:
мова: українська
переклад: одноголосий закадровий
кодек: AAC 2.0
бітрейт: 112 кб/с

Скріншоти




Джерело:

Anonymous

Опублікувати 13-Чер-2022 09:25

[Цитувати]

Малевич (2019) WEB-DLRip-AVC
Жанр: документальний
Країна: Україна
Телеканал / кіностудія: Fresh Production Group
Режисер: Володимир Луцький
Сюжет:За визначенням багатьох спеціалістів, Малевич є одним із десяти найбільш важливих художників сучасності, чия творчість початку XX сторіччя визначила розвиток мистецтва на 100 років вперед. Стрічка концентрує увагу глядача на українській частині творчості митця, до цього мало вивченій. Головна мета творців полягала у дослідженні українського походження художника. Саме під час зйомок було встановлено точне місце народження Казимира Малевича у Києві. А в Лос-Анджелесі, в інституті Центру Ґетті, куди приїхала сценарист фільму, історик і дослідник творчості Малевича Тетяна Філевська, продемонстрували кольорові оригінали розкадрувань сценарію, який художник планував екранізувати разом...Тривалість: 01:28:40
Якість: WEB-DLRip-AVC
Відео:
кодек: H.264
розмір кадру: 1024х576
бітрейт: 2500 кб/с
Аудіо:
мова: українська + російська [переклад субтитрами]
переклад: оригінал
кодек: AC3 2.0
бітрейт: 192 кб/с
Субтитри:
мова: українська
тип: вбудовані (жорсткі)

Скріншоти







Джерело:

Anonymous

Опублікувати 13-Чер-2022 09:25

[Цитувати]

Гідра (2019) DVBRemux
Жанр: документальний, кримінальний
Країна: Україна, Чехія, Австрія, США
Телеканал / кіностудія: Rattapallax, Ukrainian State Film Agency
Режисер: Рам Девінені
Актори: Володимир Тимошенко, Дмитро Вовчук
Сюжет:Міжнародний наркобізнес. Він, наче гідра, постійно простягає свої щупальця у пошуках здобичі. Дрібну – звичайних хлопців та дівчат – захвачує та поглинає моментально. Та для функціонування організму потрібна й велика здобич: чиновники, політики, правоохоронці. Усі ті, хто забезпечують захист гідрі. Як знешкодити цей розгалужений та хитрий організм? Відповідь – у справі «Гідра», яку вів на початку 1990-х молодий офіцер СБУ, Володимир Тимошенко. Наш герой перев’яже події 1990-х і нинішні, проведе паралелі, котрі дадуть нам можливість трішки інакше поглянути як на часи початку доби незалежності в Україні, так і на те, що діється тепер.Тривалість: 01:12:10
Якість: DVBRemux
Відео:
кодек: H.264
розмір кадру: х576
бітрейт: 1765 кб/с
Аудіо:
мова: українська + російська та інші [перекладено вшитими субтитрами]
переклад: оригінал
кодек: MP2
бітрейт: 192 кб/с
Субтитри:
мова: українська
тип: вбудовані (жорсткі)

Скріншоти







Джерело:

Anonymous

Опублікувати 13-Чер-2022 09:25

[Цитувати]

Амосов. Людина, що любила людей (2010) WEBRip
Жанр: документальний, біографічний
Країна: Україна
Телеканал / кіностудія: FILM.UA Group
Режисер: Юрій Сичов
Продюсер: Віктор Мірський
Виконавчий продюсер: Юрій Сичов
Оператор: Айюб Гаграманов
Автор сценарію: Світлана Козирєва
Сюжет:Документальний фільм про хірурга зі світовим ім'ям - Миколу Михайловича Амосова. Величезне прагнення до постійного саморозвитку, невгамовна любов до знань, талант винахідника, неймовірна витривалість і працездатність - всі ці якості зробили Амосова найбільшим хірургом, лікарем зі світовим ім'ям. Багаторічна робота, тисячі операцій, безліч врятованих життів, десятки винаходів в області хірургії серця. Навіть в сімдесятирічному віці Микола Амосов робив по три операції в день. На питання, скільки годин на добу він працює, Амосов відповів: «Скільки потрібно!»Тривалість: 00:43:00
Якість: WEBRip-AVC [російський відеоряд]
Відео:
кодек: H.264
розмір кадру: 656х480
бітрейт: 346 кб/с
Аудіо:
мова: українська
переклад: одноголосий закадровий
кодек: AC3 2.0
бітрейт: 192 кб/с

Скріншоти




Джерело:
 

Поточний час: 04-Лип 22:34

Часовий пояс: UTC ± 0