Пошук знайшов 500 збігів

Автор Повідомлення

Anonymous

Опублікувати 13-Чер-2022 12:02

[Цитувати]

Доісторична планета / Prehistoric Planet (2022) WEB-DLRip-AVC | Sub Ukr/Eng Жанр: документальний
Країна: США, Велико Британія

Кінокомпанія: Apple TV
Режисер: Енді Джонс, Адам Валдез
Актори: Девід Аттенборо
Сюжет:Нова серія документальних фільмів від Джона Фавро та продюсерів серіалу «Планета Земля» познайомить вас із раніше небаченими чудесами нашого світу. Ви повернетеся на 66 мільйонів років тому, коли землю, океани та небо населяли величні динозаври та безліч інших надзвичайних істот.

Перелік епізодів:

01. Узбережжя / Coasts
Мандруючи водами, де мешкають найбільш смертоносні океанські хижаки, вагітна самка туарангізавра потрапляє в біду.
02. Пустелі / Deserts
Коли два барбаридактилі борються за увагу самки, над пустелею Північної Африки зав'язується справжнє повітряне бій.
03. Прісні водоймища / Freshwater
Гігантський кудлатий дейнохейрус з качиним дзьобом бродить азіатськими болотами, шукаючи порятунку від набридливих кусючих мух.
04. Крижані світи / Ice Worlds
У засніженому лісі розгортається напружене протистояння між споконвічними суперниками – пахіринозаврами та нанукзаврами.
05. Ліси / Forests
Під час подорожі підземною печерою в Північній Америці молодий трицератопс відбивається від матері.
Тривалість: ~00:40:00 серія (цілком серій: 5)
Якість: WEB-DLRip-AVC (Hurtom)
Відео:
кодек: H.264
розмір кадру: 1024x576
бітрейт: ~2500 кб/с
Аудіо :
мова: українська
переклад: одноголосий закадровий | Dzuski.com
кодек: AC3 2.0
бітрейт: 192 кб/с
Субтитри:
мова: українська
тип: програмні (м'які)
формат: *.srt
Субтитри:
мова: англійська
тип: програмні (м'які)
формат: *.srt

Anonymous

Опублікувати 13-Чер-2022 12:02

[Цитувати]

Наш спільний батько / Our Father (2022) WEB-DL 1080p Ukr/Eng | Sub Ukr/Eng Жанр: соціально-культурнадокументалістика
Країна: США

Кінокомпанія / телеканал: Blumhouse Television
Режисер: Люсі Джордан
Актори: Кіт Бойл, Тім Делані, Леслі Енн Кох, Симона-Еліза Джирард та інші
Сюжет:Жінка робить домашній тест ДНК і з’ясовує, що має багато братів і сестер. Викривається шокуюча схема за участю відомого репродуктолога й використанням донорської сперми.Тривалість: 01:37:24
Якість: WEB-DL
Відео:
кодек: H.264
розмір кадру: 1920 х 1080
бітрейт: ~4247 кб/с
Аудіо # 1:
мова: українська
переклад: багатоголосий закадровий | ТТП
кодек: E-AC3 5.1
бітрейт: 640 кб/с

Інформація про озвучення

Аудіо # 2:
мова: англійська
переклад: оригінал
кодек: E-AC3 5.1
бітрейт: 640 кб/с
Субтитри # 1-2:
мова: українська
тип: програмні (м'які)
формат: *.srt
переклад: Антон Мазур
Субтитри # 3:
мова: англійська
тип: програмні (м'які)
формат: *.srt

Mediainfo

Format : Matroska
Format version : Version 4
File size : 3.76 GiB
Duration : 1 h 37 min
Overall bit rate mode : Variable
Overall bit rate : 5 529 kb/s
Encoded date : UTC 2022-06-04 18:25:57
Writing application : mkvmerge v67.0.0 ('Under Stars') 64-bit
Writing library : libebml v1.4.2 + libmatroska v1.6.4
Video
ID : 1
Format : AVC
Format/Info : Advanced Video Codec
Format profile :
Format settings : CABAC / 4 Ref Frames
Format settings, CABAC : Yes
Format settings, Reference : 4 frames
Codec ID : V_MPEG4/ISO/AVC
Duration : 1 h 37 min
Bit rate mode : Variable
Bit rate : 4 247 kb/s
Maximum bit rate : 20.0 Mb/s
Width : 1 920 pixels
Height : 1 080 pixels
Display aspect ratio : 16:9
Frame rate mode : Constant
Frame rate : 23.976 (24000/1001) FPS
Color space : YUV
Chroma subsampling : 4:2:0
Bit depth : 8 bits
Scan type : Progressive
Bits/(Pixel*Frame) : 0.085
Stream size : 2.89 GiB (77%)
Writing library : x264 core 148 r2727 7d026e8
Encoding settings : cabac=1 / ref=4 / deblock=1:0:0 / analyse=0x3:0x111 / me=umh / subme=10 / psy=1 / psy_rd=1.00:0.00 / mixed_ref=1 / me_range=120 / chroma_me=1 / trellis=2 / 8x8dct=1 / cqm=0 / deadzone=21,11 / fast_pskip=1 / chroma_qp_offset=-2 / threads=6 / lookahead_threads=1 / sliced_threads=0 / nr=0 / decimate=1 / interlaced=0 / bluray_compat=0 / stitchable=1 / constrained_intra=0 / bframes=16 / b_pyramid=2 / b_adapt=2 / b_bias=0 / direct=3 / weightb=1 / open_gop=0 / weightp=2 / keyint=240 / keyint_min=121 / scenecut=0 / intra_refresh=0 / rc_lookahead=240 / rc=crf / mbtree=1 / crf=16.0 / qcomp=0.50 / qpmin=6 / qpmax=51 / qpstep=4 / vbv_maxrate=20000 / vbv_bufsize=25000 / crf_max=0.0 / nal_hrd=vbr / filler=0 / ip_ratio=1.40 / aq=1:0.80
Default : Yes
Forced : No
Audio #1
ID : 2
Format : E-AC-3
Format/Info : Enhanced AC-3
Commercial name : Dolby Digital Plus
Codec ID : A_EAC3
Duration : 1 h 37 min
Bit rate mode : Constant
Bit rate : 640 kb/s
Channel(s) : 6 channels
Channel layout : L R C LFE Ls Rs
Sampling rate : 48.0 kHz
Frame rate : 31.250 FPS (1536 SPF)
Compression mode : Lossy
Stream size : 446 MiB (12%)
Language : Ukrainian
Service kind : Complete Main
Default : Yes
Forced : No
Audio #2
ID : 3
Format : E-AC-3
Format/Info : Enhanced AC-3
Commercial name : Dolby Digital Plus
Codec ID : A_EAC3
Duration : 1 h 37 min
Bit rate mode : Constant
Bit rate : 640 kb/s
Channel(s) : 6 channels
Channel layout : L R C LFE Ls Rs
Sampling rate : 48.0 kHz
Frame rate : 31.250 FPS (1536 SPF)
Compression mode : Lossy
Stream size : 446 MiB (12%)
Language : English
Service kind : Complete Main
Default : No
Forced : No
Text #1
ID : 4
Format : UTF-8
Codec ID : S_TEXT/UTF8
Codec ID/Info : UTF-8 Plain Text
Duration : 1 h 35 min
Bit rate : 7 b/s
Count of elements : 102
Stream size : 5.51 KiB (0%)
Language : Ukrainian
Default : Yes
Forced : Yes
Text #2
ID : 5
Format : UTF-8
Codec ID : S_TEXT/UTF8
Codec ID/Info : UTF-8 Plain Text
Duration : 1 h 35 min
Bit rate : 118 b/s
Count of elements : 1432
Stream size : 83.0 KiB (0%)
Language : Ukrainian
Default : No
Forced : No
Text #3
ID : 6
Format : UTF-8
Codec ID : S_TEXT/UTF8
Codec ID/Info : UTF-8 Plain Text
Duration : 1 h 35 min
Bit rate : 113 b/s
Count of elements : 1627
Stream size : 79.4 KiB (0%)
Language : English
Default : No
Forced : No
Скріншоти:[spoiler=""]
Джерело:
Особиста оцінка: 0 - чергова документалка на доволі таки популярну тему

Anonymous

Опублікувати 13-Чер-2022 12:02

[Цитувати]

Доісторична планета / Prehistoric Planet (2022) WEB-DL 1080p Ukr/Eng | Sub Ukr/Eng Жанр: документальний
Країна: США, Велико Британія

Кінокомпанія: Apple TV
Режисер: Енді Джонс, Адам Валдез
Актори: Девід Аттенборо
Сюжет:Нова серія документальних фільмів від Джона Фавро та продюсерів серіалу «Планета Земля» познайомить вас із раніше небаченими чудесами нашого світу. Ви повернетеся на 66 мільйонів років тому, коли землю, океани та небо населяли величні динозаври та безліч інших надзвичайних істот.

Перелік епізодів:

01. Узбережжя / Coasts
Мандруючи водами, де мешкають найбільш смертоносні океанські хижаки, вагітна самка туарангізавра потрапляє в біду.
02. Пустелі / Deserts
Коли два барбаридактилі борються за увагу самки, над пустелею Північної Африки зав'язується справжнє повітряне бій.
03. Прісні водоймища / Freshwater
Гігантський кудлатий дейнохейрус з качиним дзьобом бродить азіатськими болотами, шукаючи порятунку від набридливих кусючих мух.
04. Крижані світи / Ice Worlds
У засніженому лісі розгортається напружене протистояння між споконвічними суперниками – пахіринозаврами та нанукзаврами.
05. Ліси / Forests
Під час подорожі підземною печерою в Північній Америці молодий трицератопс відбивається від матері.
Тривалість: ~00:40:00 серія (цілком серій: 5)
Якість: WEB-DL 1080p
Відео:
кодек: H.264
розмір кадру: 1920x1080
бітрейт: ~9764 кб/с
Аудіо # 1:
мова: українська
переклад: одноголосий закадровий | Dzuski.com
кодек: AC3 2.0
бітрейт: 192 кб/с
Аудіо # 2:
мова: англійська
переклад: оригінал
кодек: E-AC3 5.1
бітрейт: 768 кб/с
Субтитри:
мова: українська
тип: програмні (м'які)
формат: *.srt
Субтитри:
мова: англійська
тип: програмні (м'які)
формат: *.srt

MediaInfo

Загальна інформація
Унікальний ID : 157682171635203024260237973758444057505 (0x76A07B4A742AE212D631E5511D7C33A1)
Повна назва : C:\Users\Vasul\Downloads\Prehistoric Planet (2022) WEB-DL 1080p [S01][Ukr.Eng] [Sub Ukr.Eng] [Hurtom]\S01E01 - Coasts (2022) WEB-DL 1080p [S01][Ukr.Eng] [Sub Ukr.Eng] [Hurtom].mkv
Формат : Matroska
Версія формату : Version 4
Розмір файлу : 3.15 ГіБ
Тривалість : 42 хв. 4 сек.
Загальний бітрейт : 10.7 Мбіт/сек
Назва фільму : S1E01 - Узбережжя / Coasts
Дата кодування : UTC 2022-06-03 06:59:01
Програма кодування : mkvmerge v68.0.0 ('The Curtain') 64-bit
Бібліотека кодування : libebml v1.4.2 + libmatroska v1.6.4
Обкладинка : Yes
Attachments : cover.jpg
Відео
Ідентифікатор : 1
Формат : AVC
Формат/Відомості : Advanced Video Codec
Профіль формату :
Налаштування формату : CABAC / 4 Ref Frames
Налаштування формату, CABAC : Так
Налаштування формату, RefFrames : 4 кадр(-и,-ів)
Ідентифікатор кодеку : V_MPEG4/ISO/AVC
Тривалість : 42 хв. 3 сек.
Бітрейт : 9 764 Кбіт/сек
Ширина кадру : 1 920 пікс.
Висота кадру : 1 080 пікс.
Співвідношення сторін екрану : 16:9
Режим частоти кадрів : Постійний
Частота кадрів : 23.976 (24000/1001) кадр/сек
Простір кольору : YUV
Субдискретизація хроматичності : 4:2:0
Бітова глибина : 8 біт
Тип сканування : Прогресивний
Біт/(Пікселі*Кадри) : 0.196
Розмір потоку : 2.87 ГіБ (91%)
Default : Так
Forced : Ні
Color range : Limited
Основні кольори : BT.709
Характеристики трансферу : BT.709
Матричні коефіцієнти : BT.709
Аудіо #1
Ідентифікатор : 2
Формат : AC-3
Формат/Відомості : Audio Coding 3
Комерційна назва : Dolby Digital
Ідентифікатор кодеку : A_AC3
Тривалість : 42 хв. 4 сек.
Режим розрахунку бітрейта : Постійний (CBR)
Бітрейт : 192 Кбіт/сек
Кількість каналів : 2 канал(-и,-ів)
Channel layout : L R
Частота дискретизації : 48.0 кГц
Частота кадрів : 31.250 кадр/сек (1536 SPF)
Тип стиснення : Із втратами
Розмір потоку : 57.8 МіБ (2%)
Заголовок : VO | Dzuski.com
Мова : Ukrainian
Service kind : Complete Main
Default : Так
Forced : Ні
Аудіо #2
Ідентифікатор : 3
Формат : E-AC-3 JOC
Формат/Відомості : Enhanced AC-3 with Joint Object Coding
Комерційна назва : Dolby Digital Plus with Dolby Atmos
Ідентифікатор кодеку : A_EAC3
Тривалість : 42 хв. 3 сек.
Режим розрахунку бітрейта : Постійний (CBR)
Бітрейт : 768 Кбіт/сек
Кількість каналів : 6 канал(-и,-ів)
Channel layout : L R C LFE Ls Rs
Частота дискретизації : 48.0 кГц
Частота кадрів : 31.250 кадр/сек (1536 SPF)
Тип стиснення : Із втратами
Розмір потоку : 231 МіБ (7%)
Заголовок : Original
Мова : English
Service kind : Complete Main
Default : Ні
Forced : Ні
Complexity index : 16
Number of dynamic objects : 15
Bed channel count : 1 канал
Bed channel configuration : LFE
Текст #1
Ідентифікатор : 4
Формат : UTF-8
Ідентифікатор кодеку : S_TEXT/UTF8
Ідентифікатор кодеку/Відомості : UTF-8 Plain Text
Тривалість : 41 хв. 44 сек.
Бітрейт : 63 біт/сек
Count of elements : 268
Розмір потоку : 19.4 КіБ (0%)
Мова : Ukrainian
Default : Ні
Forced : Ні
Текст #2
Ідентифікатор : 5
Формат : UTF-8
Ідентифікатор кодеку : S_TEXT/UTF8
Ідентифікатор кодеку/Відомості : UTF-8 Plain Text
Тривалість : 40 хв. 9 сек.
Бітрейт : 40 біт/сек
Count of elements : 264
Розмір потоку : 12.0 КіБ (0%)
Мова : English
Default : Ні
Forced : Ні
Текст #3
Ідентифікатор : 6
Формат : UTF-8
Ідентифікатор кодеку : S_TEXT/UTF8
Ідентифікатор кодеку/Відомості : UTF-8 Plain Text
Тривалість : 40 хв. 9 сек.
Бітрейт : 42 біт/сек
Count of elements : 295
Розмір потоку : 12.4 КіБ (0%)
Заголовок : SDH
Мова : English
Default : Ні
Forced : Ні

Anonymous

Опублікувати 13-Чер-2022 12:02

[Цитувати]

Дослідження Затонулих Кораблів (сезон 1) / Ocean Wreck Investigation (season 1)(2021) HDTV 1080p Жанр: документальний, історичний
Країна: Велика Британія

Кінокомпанія: Mallinson Sadler Productions, National Geographic
Актори: Радж Гатак (Raj Ghatak)
Сюжет:Працюючи разом з дайверами, дослідниками затонулих кораблів та археологами, серіал розповідає історії останніх моментів кораблів і тих, хто був на борту, коли вони зустрічають катастрофу. Виявлення доказів уламків за допомогою новітніх підводних технологій і поєднання їх із потужними особистими свідченнями виявляє людську сторону цих трагедій, а також відкриває відповіді на питання про те, що сталося і чому.Тривалість: 10 х 00:44:00
Якість: HDTVRip
Відео:
кодек: H.264
розмір кадру: 1920 х 1080
бітрейт: 4800 кб/с
Аудіо:
мова: українська
переклад: багатоголосий закадровий National Geographic
кодек: AAC 2.0
бітрейт: 192 кб/с

Перелік серій:

S1 E1 Assassins of The Deep - Глибинні вбивці
S1 E2 Danger Ahead - По курсу небезпека
S1 E3 Last Days of the Battleship - Останні дні лінкорів
S1 E4 Nuclear Shipwrecks - Ядерні кораблетрощі
S1 E5 Savage Revenge - Жорстока відплата
S1 E6 Failed Invasions - Фатальне вторгнення
S1 E7 Lost Fleet WWI - Втрачений флот першої світової (в озвученні помилково другої світової)
S1 E8 Collisions at Sea - Зіткнення у морі
S1 E9 Toxic Wrecks - Токсичні уламки
S1 E10 Scotland's Sea Secrets - Морські секрети Шотландії

MediaInfo

Загальна інформація
Унікальний ID : 45272765249904635181282556211842516394 (0x220F37A93AF98A8A40461604AC8805AA)
Повна назва : D:\Ocean Wreck Investigation (2021) S01 HDTV 1080p\Ocean Wreck Investigation (2021).S01.E01.1080p.HDTV.mkv
Формат : Matroska
Версія формату : Version 4
Розмір файлу : 1.26 ГіБ
Тривалість : 43 хв. 58 сек.
Режим загального бітрейту : Змінний (VBR)
Загальний бітрейт : 4 110 Кбіт/сек
Дата кодування : UTC 2022-06-02 10:52:15
Програма кодування : mkvmerge v64.0.0 ('Willows') 64-bit
Бібліотека кодування : libebml v1.4.2 + libmatroska v1.6.4
Відео
Ідентифікатор : 1
Формат : AVC
Формат/Відомості : Advanced Video Codec
Профіль формату :
Налаштування формату : CABAC / 3 Ref Frames
Налаштування формату, CABAC : Так
Налаштування формату, RefFrames : 3 кадр(-и,-ів)
Налаштування формату, GOP : M=1, N=50
Ідентифікатор кодеку : V_MPEG4/ISO/AVC
Тривалість : 43 хв. 58 сек.
Режим розрахунку бітрейта : Змінний (VBR)
Бітрейт : 3 915 Кбіт/сек
Максимальний бітрейт : 4 799 Кбіт/сек
Ширина кадру : 1 920 пікс.
Висота кадру : 1 080 пікс.
Співвідношення сторін екрану : 16:9
Режим частоти кадрів : Постійний
Частота кадрів : 25.000 кадр/сек
Простір кольору : YUV
Субдискретизація хроматичності : 4:2:0
Бітова глибина : 8 біт
Тип сканування : Прогресивний
Біт/(Пікселі*Кадри) : 0.076
Розмір потоку : 1.20 ГіБ (95%)
Default : Так
Forced : Ні
Аудіо
Ідентифікатор : 2
Формат : AAC LC
Формат/Відомості : Advanced Audio Codec Low Complexity
Ідентифікатор кодеку : A_AAC-2
Тривалість : 43 хв. 57 сек.
Бітрейт : 192 Кбіт/сек
Кількість каналів : 2 канал(-и,-ів)
Channel layout : L R
Частота дискретизації : 48.0 кГц
Частота кадрів : 46.875 кадр/сек (1024 SPF)
Тип стиснення : Із втратами
Затримка відносно відео : 85 мс
Розмір потоку : 60.5 МіБ (5%)
Мова : Ukrainian
Default : Так
Forced : Ні
Загальна інформація
Унікальний ID : 21655359683048406402841907343671786815 (0x104AABAA47801EBB7659B9A38E217D3F)
Повна назва : D:\Ocean Wreck Investigation (2021) S01 HDTV 1080p\Ocean Wreck Investigation (2021).S01.E03.1080p.HDTV.mkv
Формат : Matroska
Версія формату : Version 4
Розмір файлу : 1.26 ГіБ
Тривалість : 43 хв. 57 сек.
Режим загального бітрейту : Змінний (VBR)
Загальний бітрейт : 4 103 Кбіт/сек
Дата кодування : UTC 2022-06-02 10:08:28
Програма кодування : mkvmerge v64.0.0 ('Willows') 64-bit
Бібліотека кодування : libebml v1.4.2 + libmatroska v1.6.4
Відео
Ідентифікатор : 1
Формат : AVC
Формат/Відомості : Advanced Video Codec
Профіль формату :
Налаштування формату : CABAC / 3 Ref Frames
Налаштування формату, CABAC : Так
Налаштування формату, RefFrames : 3 кадр(-и,-ів)
Налаштування формату, GOP : M=1, N=50
Ідентифікатор кодеку : V_MPEG4/ISO/AVC
Тривалість : 43 хв. 57 сек.
Режим розрахунку бітрейта : Змінний (VBR)
Бітрейт : 3 908 Кбіт/сек
Максимальний бітрейт : 4 799 Кбіт/сек
Ширина кадру : 1 920 пікс.
Висота кадру : 1 080 пікс.
Співвідношення сторін екрану : 16:9
Режим частоти кадрів : Постійний
Частота кадрів : 25.000 кадр/сек
Простір кольору : YUV
Субдискретизація хроматичності : 4:2:0
Бітова глибина : 8 біт
Тип сканування : Прогресивний
Біт/(Пікселі*Кадри) : 0.075
Розмір потоку : 1.20 ГіБ (95%)
Default : Так
Forced : Ні
Аудіо
Ідентифікатор : 2
Формат : AAC LC
Формат/Відомості : Advanced Audio Codec Low Complexity
Ідентифікатор кодеку : A_AAC-2
Тривалість : 43 хв. 57 сек.
Бітрейт : 192 Кбіт/сек
Кількість каналів : 2 канал(-и,-ів)
Channel layout : L R
Частота дискретизації : 48.0 кГц
Частота кадрів : 46.875 кадр/сек (1024 SPF)
Тип стиснення : Із втратами
Затримка відносно відео : 107 мс
Розмір потоку : 60.6 МіБ (5%)
Мова : Ukrainian
Default : Так
Forced : Ні
Загальна інформація
Унікальний ID : 60414774393624753700133958921014391815 (0x2D737659DEBB7EB01DA1D6116F9EB407)
Повна назва : D:\Ocean Wreck Investigation (2021) S01 HDTV 1080p\Ocean Wreck Investigation (2021).S01.E04.1080p.HDTV.mkv
Формат : Matroska
Версія формату : Version 4
Розмір файлу : 1.26 ГіБ
Тривалість : 43 хв. 52 сек.
Режим загального бітрейту : Змінний (VBR)
Загальний бітрейт : 4 105 Кбіт/сек
Дата кодування : UTC 2022-06-02 11:30:01
Програма кодування : mkvmerge v64.0.0 ('Willows') 64-bit
Бібліотека кодування : libebml v1.4.2 + libmatroska v1.6.4
Відео
Ідентифікатор : 1
Формат : AVC
Формат/Відомості : Advanced Video Codec
Профіль формату :
Налаштування формату : CABAC / 3 Ref Frames
Налаштування формату, CABAC : Так
Налаштування формату, RefFrames : 3 кадр(-и,-ів)
Налаштування формату, GOP : M=1, N=50
Ідентифікатор кодеку : V_MPEG4/ISO/AVC
Тривалість : 43 хв. 52 сек.
Режим розрахунку бітрейта : Змінний (VBR)
Бітрейт : 3 910 Кбіт/сек
Максимальний бітрейт : 4 799 Кбіт/сек
Ширина кадру : 1 920 пікс.
Висота кадру : 1 080 пікс.
Співвідношення сторін екрану : 16:9
Режим частоти кадрів : Постійний
Частота кадрів : 25.000 кадр/сек
Простір кольору : YUV
Субдискретизація хроматичності : 4:2:0
Бітова глибина : 8 біт
Тип сканування : Прогресивний
Біт/(Пікселі*Кадри) : 0.075
Розмір потоку : 1.20 ГіБ (95%)
Default : Так
Forced : Ні
Аудіо
Ідентифікатор : 2
Формат : AAC LC
Формат/Відомості : Advanced Audio Codec Low Complexity
Ідентифікатор кодеку : A_AAC-2
Тривалість : 43 хв. 52 сек.
Бітрейт : 192 Кбіт/сек
Кількість каналів : 2 канал(-и,-ів)
Channel layout : L R
Частота дискретизації : 48.0 кГц
Частота кадрів : 46.875 кадр/сек (1024 SPF)
Тип стиснення : Із втратами
Затримка відносно відео : 11 мс
Розмір потоку : 60.4 МіБ (5%)
Мова : Ukrainian
Default : Так
Forced : Ні
Загальна інформація
Унікальний ID : 273196198015300699975913260583151088883 (0xCD87AC811BCEAD31DEDFE01A8ED234F3)
Повна назва : D:\Ocean Wreck Investigation (2021) S01 HDTV 1080p\Ocean Wreck Investigation (2021).S01.E05.1080p.HDTV.mkv
Формат : Matroska
Версія формату : Version 4
Розмір файлу : 1.22 ГіБ
Тривалість : 42 хв. 51 сек.
Режим загального бітрейту : Змінний (VBR)
Загальний бітрейт : 4 091 Кбіт/сек
Дата кодування : UTC 2022-06-02 11:17:15
Програма кодування : mkvmerge v64.0.0 ('Willows') 64-bit
Бібліотека кодування : libebml v1.4.2 + libmatroska v1.6.4
Відео
Ідентифікатор : 1
Формат : AVC
Формат/Відомості : Advanced Video Codec
Профіль формату :
Налаштування формату : CABAC / 3 Ref Frames
Налаштування формату, CABAC : Так
Налаштування формату, RefFrames : 3 кадр(-и,-ів)
Налаштування формату, GOP : M=1, N=50
Ідентифікатор кодеку : V_MPEG4/ISO/AVC
Тривалість : 42 хв. 51 сек.
Режим розрахунку бітрейта : Змінний (VBR)
Бітрейт : 3 896 Кбіт/сек
Максимальний бітрейт : 4 799 Кбіт/сек
Ширина кадру : 1 920 пікс.
Висота кадру : 1 080 пікс.
Співвідношення сторін екрану : 16:9
Режим частоти кадрів : Постійний
Частота кадрів : 25.000 кадр/сек
Простір кольору : YUV
Субдискретизація хроматичності : 4:2:0
Бітова глибина : 8 біт
Тип сканування : Прогресивний
Біт/(Пікселі*Кадри) : 0.075
Розмір потоку : 1.17 ГіБ (95%)
Default : Так
Forced : Ні
Аудіо
Ідентифікатор : 2
Формат : AAC LC
Формат/Відомості : Advanced Audio Codec Low Complexity
Ідентифікатор кодеку : A_AAC-2
Тривалість : 42 хв. 51 сек.
Бітрейт : 192 Кбіт/сек
Кількість каналів : 2 канал(-и,-ів)
Channel layout : L R
Частота дискретизації : 48.0 кГц
Частота кадрів : 46.875 кадр/сек (1024 SPF)
Тип стиснення : Із втратами
Затримка відносно відео : 107 мс
Розмір потоку : 59.0 МіБ (5%)
Мова : Ukrainian
Default : Так
Forced : Ні
Загальна інформація
Унікальний ID : 54575215883263908802358473660372454268 (0x290ECDE344D3F7238C5BF94F799D8B7C)
Повна назва : D:\Ocean Wreck Investigation (2021) S01 HDTV 1080p\Ocean Wreck Investigation (2021).S01.E06.1080p.HDTV.mkv
Формат : Matroska
Версія формату : Version 4
Розмір файлу : 1.26 ГіБ
Тривалість : 43 хв. 57 сек.
Режим загального бітрейту : Змінний (VBR)
Загальний бітрейт : 4 102 Кбіт/сек
Дата кодування : UTC 2022-06-02 10:37:52
Програма кодування : mkvmerge v64.0.0 ('Willows') 64-bit
Бібліотека кодування : libebml v1.4.2 + libmatroska v1.6.4
Відео
Ідентифікатор : 1
Формат : AVC
Формат/Відомості : Advanced Video Codec
Профіль формату :
Налаштування формату : CABAC / 3 Ref Frames
Налаштування формату, CABAC : Так
Налаштування формату, RefFrames : 3 кадр(-и,-ів)
Налаштування формату, GOP : M=1, N=50
Ідентифікатор кодеку : V_MPEG4/ISO/AVC
Тривалість : 43 хв. 57 сек.
Режим розрахунку бітрейта : Змінний (VBR)
Бітрейт : 3 907 Кбіт/сек
Максимальний бітрейт : 4 799 Кбіт/сек
Ширина кадру : 1 920 пікс.
Висота кадру : 1 080 пікс.
Співвідношення сторін екрану : 16:9
Режим частоти кадрів : Постійний
Частота кадрів : 25.000 кадр/сек
Простір кольору : YUV
Субдискретизація хроматичності : 4:2:0
Бітова глибина : 8 біт
Тип сканування : Прогресивний
Біт/(Пікселі*Кадри) : 0.075
Розмір потоку : 1.20 ГіБ (95%)
Default : Так
Forced : Ні
Аудіо
Ідентифікатор : 2
Формат : AAC LC
Формат/Відомості : Advanced Audio Codec Low Complexity
Ідентифікатор кодеку : A_AAC-2
Тривалість : 43 хв. 57 сек.
Бітрейт : 192 Кбіт/сек
Кількість каналів : 2 канал(-и,-ів)
Channel layout : L R
Частота дискретизації : 48.0 кГц
Частота кадрів : 46.875 кадр/сек (1024 SPF)
Тип стиснення : Із втратами
Затримка відносно відео : 107 мс
Розмір потоку : 60.5 МіБ (5%)
Мова : Ukrainian
Default : Так
Forced : Ні
Загальна інформація
Унікальний ID : 238867841704380002815479447086544337719 (0xB3B445DD5C98B36EC23FFA96A2AE3B37)
Повна назва : D:\Ocean Wreck Investigation (2021) S01 HDTV 1080p\Ocean Wreck Investigation (2021).S01.E07.1080p.HDTV.mkv
Формат : Matroska
Версія формату : Version 4
Розмір файлу : 1.26 ГіБ
Тривалість : 43 хв. 57 сек.
Режим загального бітрейту : Змінний (VBR)
Загальний бітрейт : 4 109 Кбіт/сек
Дата кодування : UTC 2022-06-02 09:55:58
Програма кодування : mkvmerge v64.0.0 ('Willows') 64-bit
Бібліотека кодування : libebml v1.4.2 + libmatroska v1.6.4
Відео
Ідентифікатор : 1
Формат : AVC
Формат/Відомості : Advanced Video Codec
Профіль формату :
Налаштування формату : CABAC / 3 Ref Frames
Налаштування формату, CABAC : Так
Налаштування формату, RefFrames : 3 кадр(-и,-ів)
Налаштування формату, GOP : M=1, N=50
Ідентифікатор кодеку : V_MPEG4/ISO/AVC
Тривалість : 43 хв. 57 сек.
Режим розрахунку бітрейта : Змінний (VBR)
Бітрейт : 3 914 Кбіт/сек
Максимальний бітрейт : 4 799 Кбіт/сек
Ширина кадру : 1 920 пікс.
Висота кадру : 1 080 пікс.
Співвідношення сторін екрану : 16:9
Режим частоти кадрів : Постійний
Частота кадрів : 25.000 кадр/сек
Простір кольору : YUV
Субдискретизація хроматичності : 4:2:0
Бітова глибина : 8 біт
Тип сканування : Прогресивний
Біт/(Пікселі*Кадри) : 0.075
Розмір потоку : 1.20 ГіБ (95%)
Default : Так
Forced : Ні
Аудіо
Ідентифікатор : 2
Формат : AAC LC
Формат/Відомості : Advanced Audio Codec Low Complexity
Ідентифікатор кодеку : A_AAC-2
Тривалість : 43 хв. 57 сек.
Бітрейт : 192 Кбіт/сек
Кількість каналів : 2 канал(-и,-ів)
Channel layout : L R
Частота дискретизації : 48.0 кГц
Частота кадрів : 46.875 кадр/сек (1024 SPF)
Тип стиснення : Із втратами
Затримка відносно відео : 107 мс
Розмір потоку : 60.5 МіБ (5%)
Мова : Ukrainian
Default : Так
Forced : Ні
Загальна інформація
Унікальний ID : 312384967031969583928949869801702734378 (0xEB0327FDECA5F4BB3FF5F7985B3CBA2A)
Повна назва : D:\Ocean Wreck Investigation (2021) S01 HDTV 1080p\Ocean Wreck Investigation (2021).S01.E08.1080p.HDTV.mkv
Формат : Matroska
Версія формату : Version 4
Розмір файлу : 1.26 ГіБ
Тривалість : 43 хв. 58 сек.
Режим загального бітрейту : Змінний (VBR)
Загальний бітрейт : 4 092 Кбіт/сек
Дата кодування : UTC 2022-06-02 11:44:31
Програма кодування : mkvmerge v64.0.0 ('Willows') 64-bit
Бібліотека кодування : libebml v1.4.2 + libmatroska v1.6.4
Відео
Ідентифікатор : 1
Формат : AVC
Формат/Відомості : Advanced Video Codec
Профіль формату :
Налаштування формату : CABAC / 3 Ref Frames
Налаштування формату, CABAC : Так
Налаштування формату, RefFrames : 3 кадр(-и,-ів)
Налаштування формату, GOP : M=1, N=50
Ідентифікатор кодеку : V_MPEG4/ISO/AVC
Тривалість : 43 хв. 58 сек.
Режим розрахунку бітрейта : Змінний (VBR)
Бітрейт : 3 897 Кбіт/сек
Максимальний бітрейт : 4 799 Кбіт/сек
Ширина кадру : 1 920 пікс.
Висота кадру : 1 080 пікс.
Співвідношення сторін екрану : 16:9
Режим частоти кадрів : Постійний
Частота кадрів : 25.000 кадр/сек
Простір кольору : YUV
Субдискретизація хроматичності : 4:2:0
Бітова глибина : 8 біт
Тип сканування : Прогресивний
Біт/(Пікселі*Кадри) : 0.075
Розмір потоку : 1.20 ГіБ (95%)
Default : Так
Forced : Ні
Аудіо
Ідентифікатор : 2
Формат : AAC LC
Формат/Відомості : Advanced Audio Codec Low Complexity
Ідентифікатор кодеку : A_AAC-2
Тривалість : 43 хв. 58 сек.
Бітрейт : 192 Кбіт/сек
Кількість каналів : 2 канал(-и,-ів)
Channel layout : L R
Частота дискретизації : 48.0 кГц
Частота кадрів : 46.875 кадр/сек (1024 SPF)
Тип стиснення : Із втратами
Затримка відносно відео : -101 мс
Розмір потоку : 60.5 МіБ (5%)
Мова : Ukrainian
Default : Так
Forced : Ні
Загальна інформація
Унікальний ID : 254597142585339488226832794270423059121 (0xBF89A045DD67A5592F7EBBC005D40AB1)
Повна назва : D:\Ocean Wreck Investigation (2021) S01 HDTV 1080p\Ocean Wreck Investigation (2021).S01.E09.1080p.HDTV.mkv
Формат : Matroska
Версія формату : Version 4
Розмір файлу : 1.27 ГіБ
Тривалість : 43 хв. 57 сек.
Режим загального бітрейту : Змінний (VBR)
Загальний бітрейт : 4 128 Кбіт/сек
Дата кодування : UTC 2022-06-02 10:21:19
Програма кодування : mkvmerge v64.0.0 ('Willows') 64-bit
Бібліотека кодування : libebml v1.4.2 + libmatroska v1.6.4
Відео
Ідентифікатор : 1
Формат : AVC
Формат/Відомості : Advanced Video Codec
Профіль формату :
Налаштування формату : CABAC / 3 Ref Frames
Налаштування формату, CABAC : Так
Налаштування формату, RefFrames : 3 кадр(-и,-ів)
Налаштування формату, GOP : M=1, N=50
Ідентифікатор кодеку : V_MPEG4/ISO/AVC
Тривалість : 43 хв. 57 сек.
Режим розрахунку бітрейта : Змінний (VBR)
Бітрейт : 3 933 Кбіт/сек
Максимальний бітрейт : 4 799 Кбіт/сек
Ширина кадру : 1 920 пікс.
Висота кадру : 1 080 пікс.
Співвідношення сторін екрану : 16:9
Режим частоти кадрів : Постійний
Частота кадрів : 25.000 кадр/сек
Простір кольору : YUV
Субдискретизація хроматичності : 4:2:0
Бітова глибина : 8 біт
Тип сканування : Прогресивний
Біт/(Пікселі*Кадри) : 0.076
Розмір потоку : 1.21 ГіБ (95%)
Default : Так
Forced : Ні
Аудіо
Ідентифікатор : 2
Формат : AAC LC
Формат/Відомості : Advanced Audio Codec Low Complexity
Ідентифікатор кодеку : A_AAC-2
Тривалість : 43 хв. 57 сек.
Бітрейт : 192 Кбіт/сек
Кількість каналів : 2 канал(-и,-ів)
Channel layout : L R
Частота дискретизації : 48.0 кГц
Частота кадрів : 46.875 кадр/сек (1024 SPF)
Тип стиснення : Із втратами
Затримка відносно відео : 107 мс
Розмір потоку : 60.5 МіБ (5%)
Мова : Ukrainian
Default : Так
Forced : Ні
Загальна інформація
Унікальний ID : 83357162000516910436368382163285498444 (0x3EB601645BAD8A2EC4B7C54DA748DA4C)
Повна назва : D:\Ocean Wreck Investigation (2021) S01 HDTV 1080p\Ocean Wreck Investigation (2021).S01.E10.1080p.HDTV.mkv
Формат : Matroska
Версія формату : Version 4
Розмір файлу : 1.26 ГіБ
Тривалість : 43 хв. 57 сек.
Режим загального бітрейту : Змінний (VBR)
Загальний бітрейт : 4 107 Кбіт/сек
Дата кодування : UTC 2022-06-02 09:44:46
Програма кодування : mkvmerge v64.0.0 ('Willows') 64-bit
Бібліотека кодування : libebml v1.4.2 + libmatroska v1.6.4
Відео
Ідентифікатор : 1
Формат : AVC
Формат/Відомості : Advanced Video Codec
Профіль формату :
Налаштування формату : CABAC / 3 Ref Frames
Налаштування формату, CABAC : Так
Налаштування формату, RefFrames : 3 кадр(-и,-ів)
Налаштування формату, GOP : M=1, N=50
Ідентифікатор кодеку : V_MPEG4/ISO/AVC
Тривалість : 43 хв. 57 сек.
Режим розрахунку бітрейта : Змінний (VBR)
Бітрейт : 3 912 Кбіт/сек
Максимальний бітрейт : 4 799 Кбіт/сек
Ширина кадру : 1 920 пікс.
Висота кадру : 1 080 пікс.
Співвідношення сторін екрану : 16:9
Режим частоти кадрів : Постійний
Частота кадрів : 25.000 кадр/сек
Простір кольору : YUV
Субдискретизація хроматичності : 4:2:0
Бітова глибина : 8 біт
Тип сканування : Прогресивний
Біт/(Пікселі*Кадри) : 0.075
Розмір потоку : 1.20 ГіБ (95%)
Default : Так
Forced : Ні
Аудіо
Ідентифікатор : 2
Формат : AAC LC
Формат/Відомості : Advanced Audio Codec Low Complexity
Ідентифікатор кодеку : A_AAC-2
Тривалість : 43 хв. 57 сек.
Бітрейт : 192 Кбіт/сек
Кількість каналів : 2 канал(-и,-ів)
Channel layout : L R
Частота дискретизації : 48.0 кГц
Частота кадрів : 46.875 кадр/сек (1024 SPF)
Тип стиснення : Із втратами
Затримка відносно відео : 85 мс
Розмір потоку : 60.6 МіБ (5%)
Мова : Ukrainian
Default : Так
Forced : Ні
Загальна інформація
Унікальний ID : 56913615592609282613236003850538642852 (0x2AD129E50D7617F41CAB7275BCAEEDA4)
Повна назва : D:\Ocean Wreck Investigation (2021) S01 HDTV 1080p\Ocean Wreck Investigation (2021).S01E02.1080p.HDTV.mkv
Формат : Matroska
Версія формату : Version 4
Розмір файлу : 1.25 ГіБ
Тривалість : 43 хв. 58 сек.
Режим загального бітрейту : Змінний (VBR)
Загальний бітрейт : 4 081 Кбіт/сек
Програма кодування : Lavf58.76.100
Бібліотека кодування : Lavf58.76.100
ErrorDetectionType : Per level 1
Відео
Ідентифікатор : 1
Формат : AVC
Формат/Відомості : Advanced Video Codec
Профіль формату :
Налаштування формату : CABAC / 3 Ref Frames
Налаштування формату, CABAC : Так
Налаштування формату, RefFrames : 3 кадр(-и,-ів)
Налаштування формату, GOP : M=1, N=50
Ідентифікатор кодеку : V_MPEG4/ISO/AVC
Тривалість : 43 хв. 58 сек.
Режим розрахунку бітрейта : Змінний (VBR)
Максимальний бітрейт : 4 799 Кбіт/сек
Ширина кадру : 1 920 пікс.
Висота кадру : 1 080 пікс.
Співвідношення сторін екрану : 16:9
Режим частоти кадрів : Постійний
Частота кадрів : 25.000 кадр/сек
Простір кольору : YUV
Субдискретизація хроматичності : 4:2:0
Бітова глибина : 8 біт
Тип сканування : Прогресивний
Default : Так
Forced : Ні
Аудіо
Ідентифікатор : 2
Формат : AAC LC
Формат/Відомості : Advanced Audio Codec Low Complexity
Ідентифікатор кодеку : A_AAC-2
Тривалість : 43 хв. 58 сек.
Кількість каналів : 2 канал(-и,-ів)
Channel layout : L R
Частота дискретизації : 48.0 кГц
Частота кадрів : 46.875 кадр/сек (1024 SPF)
Тип стиснення : Із втратами
Затримка відносно відео : 85 мс
Мова : English
Default : Так
Forced : Ні

Скріншоти



За відео подяка РОМЕО

Anonymous

Опублікувати 13-Чер-2022 12:02

[Цитувати]

Революція і романтика: музичні майстри XIX століття (2016) / Revolution and Romance: Musical Masters of the 19th Century (2016) HDTV 1080p Жанр: документальний, історичний
Країна: Велика Британія

Кінокомпанія: Blakeway Productions, BBC
Режисер: Нік Гіллам-Сміт (Nick Gillam-Smith)
Актори: Сюзі Кляйн (Suzy Klein)
Сюжет:Серіал, у якому Сюзі Кляйн досліджує трансформацію музики в 19 столітті. Вона показує, як музика стала революційною силою, яка змінила світ.Тривалість: 3 х 00:59:06
Якість: HDTVRip
Відео:
кодек: H.264
розмір кадру: 1920 х 1080
бітрейт: 4000 кб/с
Аудіо:
мова: українська
переклад: двоголосий закадровий DaVinci
кодек: AAC 2.0
бітрейт: 192 кб/с

Перелік серій:

S01 E01 Ми можемо бути героями - We Can Be Heroes
S01 E02 Розмови про революцію - Talkin' 'bout a Revolution
S01 E03 Гуляй, як у 1899 - Party Like It's 1899

MediaInfo

Загальна інформація
Унікальний ID : 106053954296174103948068130735056219832 (0x4FC93FA636AC18A845F5690383FFEEB8)
Повна назва : D:\Revolution and Romance-Musical Masters of the 19th Century (2016) S01 HDTV 1080p\Revolution and Romance-Musical Masters of the 19th Century (2016) S01 E01 HDTV 1080p.mkv
Формат : Matroska
Версія формату : Version 4
Розмір файлу : 1.73 ГіБ
Тривалість : 59 хв. 6 сек.
Загальний бітрейт : 4 196 Кбіт/сек
Програма кодування : Lavf58.76.100
Бібліотека кодування : Lavf58.76.100
ErrorDetectionType : Per level 1
Відео
Ідентифікатор : 1
Формат : AVC
Формат/Відомості : Advanced Video Codec
Профіль формату :
Налаштування формату : CABAC / 4 Ref Frames
Налаштування формату, CABAC : Так
Налаштування формату, RefFrames : 4 кадр(-и,-ів)
Ідентифікатор кодеку : V_MPEG4/ISO/AVC
Тривалість : 59 хв. 6 сек.
Номінальний бітрейт : 4 000 Кбіт/сек
Ширина кадру : 1 920 пікс.
Висота кадру : 1 080 пікс.
Співвідношення сторін екрану : 16:9
Режим частоти кадрів : Постійний
Частота кадрів : 25.000 кадр/сек
Простір кольору : YUV
Субдискретизація хроматичності : 4:2:0
Бітова глибина : 8 біт
Тип сканування : Прогресивний
Біт/(Пікселі*Кадри) : 0.077
Бібліотека кодування : x264 core 155 r2917 0a84d98
Налаштування бібліот. кодування : cabac=1 / ref=3 / deblock=1:0:0 / analyse=0x3:0x113 / me=hex / subme=7 / psy=1 / psy_rd=1.00:0.00 / mixed_ref=1 / me_range=16 / chroma_me=1 / trellis=1 / 8x8dct=1 / cqm=0 / deadzone=21,11 / fast_pskip=1 / chroma_qp_offset=-2 / threads=12 / lookahead_threads=2 / sliced_threads=0 / nr=0 / decimate=1 / interlaced=0 / bluray_compat=0 / constrained_intra=0 / bframes=3 / b_pyramid=2 / b_adapt=1 / b_bias=0 / direct=1 / weightb=1 / open_gop=0 / weightp=2 / keyint=75 / keyint_min=25 / scenecut=40 / intra_refresh=0 / rc=2pass / mbtree=0 / bitrate=4000 / ratetol=1.0 / qcomp=0.60 / qpmin=0 / qpmax=69 / qpstep=4 / cplxblur=20.0 / qblur=0.5 / ip_ratio=1.40 / pb_ratio=1.30 / aq=1:1.00
Default : Так
Forced : Ні
Аудіо
Ідентифікатор : 2
Формат : AAC LC
Формат/Відомості : Advanced Audio Codec Low Complexity
Ідентифікатор кодеку : A_AAC-2
Тривалість : 59 хв. 5 сек.
Кількість каналів : 2 канал(-и,-ів)
Channel layout : L R
Частота дискретизації : 48.0 кГц
Частота кадрів : 46.875 кадр/сек (1024 SPF)
Тип стиснення : Із втратами
Затримка відносно відео : 64 мс
Default : Так
Forced : Ні
Загальна інформація
Унікальний ID : 136276796670529050875322191832969803184 (0x6685F4D2EA049F673328928E58BE75B0)
Повна назва : D:\Revolution and Romance-Musical Masters of the 19th Century (2016) S01 HDTV 1080p\Revolution and Romance-Musical Masters of the 19th Century (2016) S01 E02 HDTV 1080p.mkv
Формат : Matroska
Версія формату : Version 4
Розмір файлу : 1.73 ГіБ
Тривалість : 59 хв. 4 сек.
Загальний бітрейт : 4 196 Кбіт/сек
Програма кодування : Lavf58.76.100
Бібліотека кодування : Lavf58.76.100
ErrorDetectionType : Per level 1
Відео
Ідентифікатор : 1
Формат : AVC
Формат/Відомості : Advanced Video Codec
Профіль формату :
Налаштування формату : CABAC / 4 Ref Frames
Налаштування формату, CABAC : Так
Налаштування формату, RefFrames : 4 кадр(-и,-ів)
Ідентифікатор кодеку : V_MPEG4/ISO/AVC
Тривалість : 59 хв. 4 сек.
Номінальний бітрейт : 4 000 Кбіт/сек
Ширина кадру : 1 920 пікс.
Висота кадру : 1 080 пікс.
Співвідношення сторін екрану : 16:9
Режим частоти кадрів : Постійний
Частота кадрів : 25.000 кадр/сек
Простір кольору : YUV
Субдискретизація хроматичності : 4:2:0
Бітова глибина : 8 біт
Тип сканування : Прогресивний
Біт/(Пікселі*Кадри) : 0.077
Бібліотека кодування : x264 core 155 r2917 0a84d98
Налаштування бібліот. кодування : cabac=1 / ref=3 / deblock=1:0:0 / analyse=0x3:0x113 / me=hex / subme=7 / psy=1 / psy_rd=1.00:0.00 / mixed_ref=1 / me_range=16 / chroma_me=1 / trellis=1 / 8x8dct=1 / cqm=0 / deadzone=21,11 / fast_pskip=1 / chroma_qp_offset=-2 / threads=12 / lookahead_threads=2 / sliced_threads=0 / nr=0 / decimate=1 / interlaced=0 / bluray_compat=0 / constrained_intra=0 / bframes=3 / b_pyramid=2 / b_adapt=1 / b_bias=0 / direct=1 / weightb=1 / open_gop=0 / weightp=2 / keyint=75 / keyint_min=25 / scenecut=40 / intra_refresh=0 / rc=2pass / mbtree=0 / bitrate=4000 / ratetol=1.0 / qcomp=0.60 / qpmin=0 / qpmax=69 / qpstep=4 / cplxblur=20.0 / qblur=0.5 / ip_ratio=1.40 / pb_ratio=1.30 / aq=1:1.00
Default : Так
Forced : Ні
Аудіо
Ідентифікатор : 2
Формат : AAC LC
Формат/Відомості : Advanced Audio Codec Low Complexity
Ідентифікатор кодеку : A_AAC-2
Тривалість : 59 хв. 3 сек.
Кількість каналів : 2 канал(-и,-ів)
Channel layout : L R
Частота дискретизації : 48.0 кГц
Частота кадрів : 46.875 кадр/сек (1024 SPF)
Тип стиснення : Із втратами
Затримка відносно відео : 64 мс
Default : Так
Forced : Ні
Загальна інформація
Унікальний ID : 238676472900870278760867724166998610523 (0xB38F6AA77B09FCC47874159FC999525B)
Повна назва : D:\Revolution and Romance-Musical Masters of the 19th Century (2016) S01 HDTV 1080p\Revolution and Romance-Musical Masters of the 19th Century (2016) S01 E03 HDTV 1080p .mkv
Формат : Matroska
Версія формату : Version 4
Розмір файлу : 1.73 ГіБ
Тривалість : 59 хв. 6 сек.
Загальний бітрейт : 4 196 Кбіт/сек
Програма кодування : Lavf58.76.100
Бібліотека кодування : Lavf58.76.100
ErrorDetectionType : Per level 1
Відео
Ідентифікатор : 1
Формат : AVC
Формат/Відомості : Advanced Video Codec
Профіль формату :
Налаштування формату : CABAC / 4 Ref Frames
Налаштування формату, CABAC : Так
Налаштування формату, RefFrames : 4 кадр(-и,-ів)
Ідентифікатор кодеку : V_MPEG4/ISO/AVC
Тривалість : 59 хв. 6 сек.
Номінальний бітрейт : 4 000 Кбіт/сек
Ширина кадру : 1 920 пікс.
Висота кадру : 1 080 пікс.
Співвідношення сторін екрану : 16:9
Режим частоти кадрів : Постійний
Частота кадрів : 25.000 кадр/сек
Простір кольору : YUV
Субдискретизація хроматичності : 4:2:0
Бітова глибина : 8 біт
Тип сканування : Прогресивний
Біт/(Пікселі*Кадри) : 0.077
Бібліотека кодування : x264 core 155 r2917 0a84d98
Налаштування бібліот. кодування : cabac=1 / ref=3 / deblock=1:0:0 / analyse=0x3:0x113 / me=hex / subme=7 / psy=1 / psy_rd=1.00:0.00 / mixed_ref=1 / me_range=16 / chroma_me=1 / trellis=1 / 8x8dct=1 / cqm=0 / deadzone=21,11 / fast_pskip=1 / chroma_qp_offset=-2 / threads=12 / lookahead_threads=2 / sliced_threads=0 / nr=0 / decimate=1 / interlaced=0 / bluray_compat=0 / constrained_intra=0 / bframes=3 / b_pyramid=2 / b_adapt=1 / b_bias=0 / direct=1 / weightb=1 / open_gop=0 / weightp=2 / keyint=75 / keyint_min=25 / scenecut=40 / intra_refresh=0 / rc=2pass / mbtree=0 / bitrate=4000 / ratetol=1.0 / qcomp=0.60 / qpmin=0 / qpmax=69 / qpstep=4 / cplxblur=20.0 / qblur=0.5 / ip_ratio=1.40 / pb_ratio=1.30 / aq=1:1.00
Default : Так
Forced : Ні
Аудіо
Ідентифікатор : 2
Формат : AAC LC
Формат/Відомості : Advanced Audio Codec Low Complexity
Ідентифікатор кодеку : A_AAC-2
Тривалість : 59 хв. 5 сек.
Кількість каналів : 2 канал(-и,-ів)
Channel layout : L R
Частота дискретизації : 48.0 кГц
Частота кадрів : 46.875 кадр/сек (1024 SPF)
Тип стиснення : Із втратами
Затримка відносно відео : 64 мс
Default : Так
Forced : Ні
Загальна інформація
Повна назва : D:\Revolution and Romance-Musical Masters of the 19th Century (2016) S01 HDTV 1080p\Revolution and Romance-Musical Masters of the 19th Century (2016) S01 HDTV 1080p.torrent
Розмір файлу : 13.6 КіБ

Скріншоти



За відео подяка РОМЕО

Anonymous

Опублікувати 13-Чер-2022 11:59

[Цитувати]

Таємниця Мерілін Монро: Утрачені записи / The Mystery of Marilyn Monroe: The Unheard Tapes (2022) WEB-DL 1080p Ukr/Eng | Sub Ukr/Eng Жанр: історична документалістика
Країна: США

Кінокомпанія / телеканал: Emress Films, Library Films
Режисер: Емма Купер
Актори: Мерілін Монро, Ел Розен, Глорія Романофф, Джейн Рассел, Денні Ґрінсон, Біллі Вайлдер, Гледіс Віттен, Генрі Розенфельд та інші
Сюжет:Документальний фільм досліджує таємницю смерті легендарної актриси Мерілін Монро за допомогою вперше опублікованих інтерв’ю з її найближчим оточенням.Тривалість: 01:41:41
Якість: WEB-DL
Відео:
кодек: H.264
розмір кадру: 1920 х 1080
бітрейт: ~5892 кб/с
Аудіо # 1:
мова: українська
переклад: багатоголосий закадровий | ТТП
кодек: E-AC3 5.1
бітрейт: 640 кб/с

Інформація про озвучення

Аудіо # 2:
мова: англійська
переклад: оригінал
кодек: E-AC3 5.1
бітрейт: 640 кб/с
Субтитри # 1-2:
мова: українська
тип: програмні (м'які)
формат: *.srt
переклад: Ольга Мазур
Субтитри # 3:
мова: англійська
тип: програмні (м'які)
формат: *.srt

Mediainfo

Format : Matroska
Format version : Version 4 / Version 2
File size : 5.19 GiB
Duration : 1 h 41 min
Overall bit rate mode : Variable
Overall bit rate : 7 301 kb/s
Encoded date : UTC 2022-04-27 09:21:50
Writing application : mkvmerge v31.0.0 ('Dolores In A Shoestand') 64-bit
Writing library : libebml v1.3.6 + libmatroska v1.4.9
Video
ID : 1
Format : AVC
Format/Info : Advanced Video Codec
Format profile :
Format settings : CABAC / 4 Ref Frames
Format settings, CABAC : Yes
Format settings, ReFrames : 4 frames
Codec ID : V_MPEG4/ISO/AVC
Duration : 1 h 41 min
Bit rate mode : Variable
Bit rate : 5 892 kb/s
Maximum bit rate : 20.0 Mb/s
Width : 1 920 pixels
Height : 1 080 pixels
Display aspect ratio : 16:9
Frame rate mode : Constant
Frame rate : 25.000 FPS
Color space : YUV
Chroma subsampling : 4:2:0
Bit depth : 8 bits
Scan type : Progressive
Bits/(Pixel*Frame) : 0.114
Stream size : 4.18 GiB (81%)
Writing library : x264 core 148 r2727 7d026e8
Encoding settings : cabac=1 / ref=4 / deblock=1:0:0 / analyse=0x3:0x111 / me=umh / subme=10 / psy=1 / psy_rd=1.00:0.00 / mixed_ref=1 / me_range=120 / chroma_me=1 / trellis=2 / 8x8dct=1 / cqm=0 / deadzone=21,11 / fast_pskip=1 / chroma_qp_offset=-2 / threads=8 / lookahead_threads=2 / sliced_threads=0 / nr=0 / decimate=1 / interlaced=0 / bluray_compat=0 / stitchable=1 / constrained_intra=0 / bframes=16 / b_pyramid=2 / b_adapt=2 / b_bias=0 / direct=3 / weightb=1 / open_gop=0 / weightp=2 / keyint=250 / keyint_min=126 / scenecut=0 / intra_refresh=0 / rc_lookahead=250 / rc=crf / mbtree=1 / crf=18.0 / qcomp=0.50 / qpmin=6 / qpmax=51 / qpstep=4 / vbv_maxrate=20000 / vbv_bufsize=25000 / crf_max=0.0 / nal_hrd=vbr / filler=0 / ip_ratio=1.40 / aq=1:0.80
Default : Yes
Forced : No
Audio #1
ID : 2
Format : E-AC-3
Format/Info : Enhanced AC-3
Commercial name : Dolby Digital Plus
Codec ID : A_EAC3
Duration : 1 h 41 min
Bit rate mode : Constant
Bit rate : 640 kb/s
Channel(s) : 6 channels
Channel positions : Front: L C R, Side: L R, LFE
Sampling rate : 48.0 kHz
Frame rate : 31.250 FPS (1536 SPF)
Compression mode : Lossy
Stream size : 466 MiB (9%)
Title : Ukrainian
Language : Ukrainian
Service kind : Complete Main
Default : Yes
Forced : No
Audio #2
ID : 3
Format : E-AC-3
Format/Info : Enhanced AC-3
Commercial name : Dolby Digital Plus with Dolby Atmos
Format profile : E-AC-3 JOC / E-AC-3
Codec ID : A_EAC3
Duration : 1 h 41 min
Bit rate mode : Constant
Bit rate : 768 kb/s
Channel(s) : 6 channels
Channel positions : Front: L C R, Side: L R, LFE
Sampling rate : 48.0 kHz
Frame rate : 31.250 FPS (1536 SPF)
Compression mode : Lossy
Stream size : 559 MiB (11%)
Title : English
Language : English
Service kind : Complete Main
Default : No
Forced : No
Complexity index : 16
Number of dynamic objects : 15
Bed channel count : 1 channel
Bed channel configuration : LFE
Text #1
ID : 4
Format : UTF-8
Codec ID : S_TEXT/UTF8
Codec ID/Info : UTF-8 Plain Text
Duration : 1 h 39 min
Bit rate : 7 b/s
Count of elements : 115
Stream size : 5.14 KiB (0%)
Title : Forced
Language : Ukrainian
Default : Yes
Forced : Yes
Text #2
ID : 5
Format : UTF-8
Codec ID : S_TEXT/UTF8
Codec ID/Info : UTF-8 Plain Text
Duration : 1 h 39 min
Bit rate : 124 b/s
Count of elements : 1571
Stream size : 90.6 KiB (0%)
Title : Ukrainian
Language : Ukrainian
Default : No
Forced : No
Text #3
ID : 6
Format : UTF-8
Codec ID : S_TEXT/UTF8
Codec ID/Info : UTF-8 Plain Text
Duration : 1 h 37 min
Bit rate : 125 b/s
Count of elements : 1684
Stream size : 90.0 KiB (0%)
Title : English
Language : English
Default : No
Forced : No
Скріншоти:[spoiler=""]
Джерело:
Особиста оцінка: 7 - для тих хто зацікавлений цією персоною — маст сі

Anonymous

Опублікувати 13-Чер-2022 11:59

[Цитувати]

Таємниці Гробу Господнього / The Secret of Christ's Tomb (2017) 1080p HDTV Жанр: документальний, історичний
Країна: США

Кінокомпанія: Pioneer Film and Television Productions, National Geographic
Режисер: Роберт Стрейндж (Robert Strange)
Актори: Стефан Ештон Франк (Stefan Ashton Frank), Марія Апостопулу (Maria Apostolopoulou) Філіп Бен-Шмуель (Phillip Ben-Shmuel)
Сюжет:У цій спеціальній програмі Nat Geo Explorer ми стежимо за провідними світовими експертами, які намагаються розкрити таємниці навколо Гробниці Христа. У центрі історії команда провідних вчених використовує новітні наукові методи для відновлення едикула, в якому знаходиться гробниця. Наукові дослідження вказують на те, що залишки гробниці датуються принаймні 4 століттям – відкриття, яке може змінити те, що ми знаємо про гробницю Христа.Тривалість: 00:46:41
Якість: HDTVRip
Відео:
кодек: H.264
розмір кадру: 1920 х 1080
бітрейт: 4144 кб/с
Аудіо:
мова: українська
переклад: багатоголосий закадровий National Geographic
кодек: AAC 2.0
бітрейт: 192 кб/с

MediaInfo

Загальна інформація
Унікальний ID : 9812405845131051257524190540822094328 (0x761CCF5B7DA698535073ACDD49621F8)
Повна назва : D:\The Secret of Christ's Tomb (2017) 1080p HDTV\The Secret of Christ's Tomb (2017) 1080p HDTV.mkv
Формат : Matroska
Версія формату : Version 4
Розмір файлу : 1.35 ГіБ
Тривалість : 46 хв. 40 сек.
Режим загального бітрейту : Змінний (VBR)
Загальний бітрейт : 4 144 Кбіт/сек
Дата кодування : UTC 2022-04-25 17:39:19
Програма кодування : mkvmerge v64.0.0 ('Willows') 64-bit
Бібліотека кодування : libebml v1.4.2 + libmatroska v1.6.4
Відео
Ідентифікатор : 1
Формат : AVC
Формат/Відомості : Advanced Video Codec
Профіль формату :
Налаштування формату : CABAC / 3 Ref Frames
Налаштування формату, CABAC : Так
Налаштування формату, RefFrames : 3 кадр(-и,-ів)
Налаштування формату, GOP : M=1, N=50
Ідентифікатор кодеку : V_MPEG4/ISO/AVC
Тривалість : 46 хв. 40 сек.
Режим розрахунку бітрейта : Змінний (VBR)
Бітрейт : 3 949 Кбіт/сек
Максимальний бітрейт : 4 799 Кбіт/сек
Ширина кадру : 1 920 пікс.
Висота кадру : 1 080 пікс.
Співвідношення сторін екрану : 16:9
Режим частоти кадрів : Постійний
Частота кадрів : 25.000 кадр/сек
Простір кольору : YUV
Субдискретизація хроматичності : 4:2:0
Бітова глибина : 8 біт
Тип сканування : Прогресивний
Біт/(Пікселі*Кадри) : 0.076
Розмір потоку : 1.29 ГіБ (95%)
Default : Так
Forced : Ні
Аудіо
Ідентифікатор : 2
Формат : AAC LC
Формат/Відомості : Advanced Audio Codec Low Complexity
Ідентифікатор кодеку : A_AAC-2
Тривалість : 46 хв. 40 сек.
Бітрейт : 192 Кбіт/сек
Кількість каналів : 2 канал(-и,-ів)
Channel layout : L R
Частота дискретизації : 48.0 кГц
Частота кадрів : 46.875 кадр/сек (1024 SPF)
Тип стиснення : Із втратами
Затримка відносно відео : 107 мс
Розмір потоку : 64.5 МіБ (5%)
Мова : Ukrainian
Default : Так
Forced : Ні

Скріншоти



Anonymous

Опублікувати 13-Чер-2022 11:59

[Цитувати]

Втрачена гробниця Олександра Великого / The Lost Tomb of Alexander the Great (2019) 1080p HDTV Жанр: документальний
Країна: Велика Британія

Кінокомпанія: Blakeway Productions, National Geographic
Режисер: Дункан Сінгх (Duncan Singh)
Актори: Метт МакФетрідж (Matt McFetridge), Фредрік Гіберт (Fredrik T. Hiebert), Калліопа Ліннеос-Папакоста (Calliope Limneos-Papakosta)
Сюжет:Місцезнаходження гробниці Олександра Македонського залишається незмінною таємницею. Після смерті Олександра у Вавилоні його тіло було спочатку поховано в Мемфісі Птолемеєм I Сотером , а потім перенесено до Олександрії , де воно було перепоховано. Юлій Цезар, Клеопатра та Август, серед інших, відвідали гробницю Олександра в Олександрії, хоча вона, можливо, була зруйнована до 4 століття. Починаючи з 19 століття, було зроблено понад сто офіційних спроб спробувати ідентифікувати стародавнє місце гробниці Олександра в Олександрії. Тривалість: 00:44:26
Якість: HDTVRip
Відео:
кодек: H.264
розмір кадру: 1920 х 1080
бітрейт: 4140 кб/с
Аудіо:
мова: українська
переклад: багатоголосий закадровий National Geographic
кодек: AAC 2.0
бітрейт: 192 кб/с

MediaInfo

Загальна інформація
Унікальний ID : 62258980464515480349914131985521775352 (0x2ED6A4BAFF7CE605C3EA473F952D12F8)
Повна назва : D:\The Lost Tomb of Alexander The Great (2019) 1080p HDTV\The Lost Tomb of Alexander The Great (2019) 1080p HDTV.mkv
Формат : Matroska
Версія формату : Version 4
Розмір файлу : 1.29 ГіБ
Тривалість : 44 хв. 25 сек.
Режим загального бітрейту : Змінний (VBR)
Загальний бітрейт : 4 141 Кбіт/сек
Дата кодування : UTC 2022-04-25 17:35:32
Програма кодування : mkvmerge v64.0.0 ('Willows') 64-bit
Бібліотека кодування : libebml v1.4.2 + libmatroska v1.6.4
Відео
Ідентифікатор : 1
Формат : AVC
Формат/Відомості : Advanced Video Codec
Профіль формату :
Налаштування формату : CABAC / 3 Ref Frames
Налаштування формату, CABAC : Так
Налаштування формату, RefFrames : 3 кадр(-и,-ів)
Налаштування формату, GOP : M=1, N=50
Ідентифікатор кодеку : V_MPEG4/ISO/AVC
Тривалість : 44 хв. 25 сек.
Режим розрахунку бітрейта : Змінний (VBR)
Бітрейт : 3 946 Кбіт/сек
Максимальний бітрейт : 4 799 Кбіт/сек
Ширина кадру : 1 920 пікс.
Висота кадру : 1 080 пікс.
Співвідношення сторін екрану : 16:9
Режим частоти кадрів : Постійний
Частота кадрів : 25.000 кадр/сек
Простір кольору : YUV
Субдискретизація хроматичності : 4:2:0
Бітова глибина : 8 біт
Тип сканування : Прогресивний
Біт/(Пікселі*Кадри) : 0.076
Розмір потоку : 1.22 ГіБ (95%)
Default : Так
Forced : Ні
Аудіо
Ідентифікатор : 2
Формат : AAC LC
Формат/Відомості : Advanced Audio Codec Low Complexity
Ідентифікатор кодеку : A_AAC-2
Тривалість : 44 хв. 25 сек.
Бітрейт : 192 Кбіт/сек
Кількість каналів : 2 канал(-и,-ів)
Channel layout : L R
Частота дискретизації : 48.0 кГц
Частота кадрів : 46.875 кадр/сек (1024 SPF)
Тип стиснення : Із втратами
Затримка відносно відео : 107 мс
Розмір потоку : 61.3 МіБ (5%)
Мова : Ukrainian
Default : Так
Forced : Ні

Скріншоти



Anonymous

Опублікувати 13-Чер-2022 11:59

[Цитувати]

Сканування Землі. Жива планета / X-Ray Earth. Living Planet (2017) 1080p HDTV Жанр: документальний
Країна: Велика Британія
Телеканал: National Geographic
Режисер: Ден Чамберс
Сюжет:Як і організм, Земля має взаємопов’язану мережу систем, які регулюють роботу планети та підтримують її здоров’я. Якщо порівнювати з людиною, схожість вражаюча. Як і ми, у Землі є обмін речовин. Він може контролювати свою температуру і дихання, адаптуватися до змін, вирощувати нову шкіру і навіть загоюватися після травм. Але наскільки стійкий наш світ і де вписується в цю картину людство?Тривалість: 00:43:59
Якість: HDTVRip
Відео:
кодек: H.264
розмір кадру: 1920 х 1080
бітрейт: 4130 кб/с
Аудіо:
мова: українська
переклад: багатоголосий закадровий National Geographic
кодек: AAC 2.0
бітрейт: 192 кб/с

MediaInfo

Загальна інформація
Унікальний ID : 245000582895032779470477287509711590456 (0xB8516559A2D20C8A26E0F0E8928F1438)
Повна назва : D:\X-Ray Earth. Living Planet (2017) 1080p HDTV\X-Ray Earth. Living Planet (2017) 1080p HDTV.mkv
Формат : Matroska
Версія формату : Version 4
Розмір файлу : 1.27 ГіБ
Тривалість : 43 хв. 59 сек.
Режим загального бітрейту : Змінний (VBR)
Загальний бітрейт : 4 130 Кбіт/сек
Дата кодування : UTC 2022-04-23 13:58:40
Програма кодування : mkvmerge v64.0.0 ('Willows') 64-bit
Бібліотека кодування : libebml v1.4.2 + libmatroska v1.6.4
Відео
Ідентифікатор : 1
Формат : AVC
Формат/Відомості : Advanced Video Codec
Профіль формату :
Налаштування формату : CABAC / 3 Ref Frames
Налаштування формату, CABAC : Так
Налаштування формату, RefFrames : 3 кадр(-и,-ів)
Налаштування формату, GOP : M=1, N=50
Ідентифікатор кодеку : V_MPEG4/ISO/AVC
Тривалість : 43 хв. 59 сек.
Режим розрахунку бітрейта : Змінний (VBR)
Бітрейт : 3 934 Кбіт/сек
Максимальний бітрейт : 4 799 Кбіт/сек
Ширина кадру : 1 920 пікс.
Висота кадру : 1 080 пікс.
Співвідношення сторін екрану : 16:9
Режим частоти кадрів : Постійний
Частота кадрів : 25.000 кадр/сек
Простір кольору : YUV
Субдискретизація хроматичності : 4:2:0
Бітова глибина : 8 біт
Тип сканування : Прогресивний
Біт/(Пікселі*Кадри) : 0.076
Розмір потоку : 1.21 ГіБ (95%)
Default : Так
Forced : Ні
Аудіо
Ідентифікатор : 2
Формат : AAC LC
Формат/Відомості : Advanced Audio Codec Low Complexity
Ідентифікатор кодеку : A_AAC-2
Тривалість : 43 хв. 58 сек.
Бітрейт : 192 Кбіт/сек
Кількість каналів : 2 канал(-и,-ів)
Channel layout : L R
Частота дискретизації : 48.0 кГц
Частота кадрів : 46.875 кадр/сек (1024 SPF)
Тип стиснення : Із втратами
Затримка відносно відео : 64 мс
Розмір потоку : 60.8 МіБ (5%)
Мова : Ukrainian
Default : Так
Forced : Ні

Скріншоти



Anonymous

Опублікувати 13-Чер-2022 11:59

[Цитувати]

Чистий гламур: Зліт і падіння Abercrombie and Fitch / White Hot: The Rise and Fall of Abercrombie and Fitch (2022) WEB-DL 1080p Ukr/Eng | Sub Ukr/Eng Жанр: Соціально-культурна документалістика
Країна: США

Кінокомпанія / телеканал: AliKlay Productions LLC, All3Media, Second Nature Productions, Cinetic, Cannibal Content
Режисер: Джиммі Чін, Елізабет Чай Васаргелі
Актори: Ілон Маск, Джим Брайнденстайн, Даґ Герлі, Боб Бенкен, Тім Додд, Лорі Гарвер, Ґвінн Шотвелл, Ларс Блеквал та інші
Сюжет:Так одягалися лише круті дітлахи. Цей документальний фільм досліджує, як у кінці 90-х років бренд A&F став популярним завдяки своїй філософії одягу для обраних.Тривалість: 01:28:04
Якість: WEB-DL
Відео:
кодек: H.264
розмір кадру: 1920 х 1080
бітрейт: ~4460 кб/с
Аудіо # 1:
мова: українська
переклад: багатоголосий закадровий | ТТП
кодек: E-AC3 5.1
бітрейт: 640 кб/с

Інформація про озвучення

Аудіо # 2:
мова: англійська
переклад: оригінал
кодек: E-AC3 5.1
бітрейт: 640 кб/с
Субтитри # 1-2:
мова: українська
тип: програмні (м'які)
формат: *.srt
переклад: Тетяна Лаховська
Субтитри # 3:
мова: англійська
тип: програмні (м'які)
формат: *.srt

Mediainfo

Format : Matroska
Format version : Version 4 / Version 2
File size : 3.53 GiB
Duration : 1 h 28 min
Overall bit rate mode : Variable
Overall bit rate : 5 742 kb/s
Encoded date : UTC 2022-04-19 09:40:40
Writing application : mkvmerge v31.0.0 ('Dolores In A Shoestand') 64-bit
Writing library : libebml v1.3.6 + libmatroska v1.4.9
Video
ID : 1
Format : AVC
Format/Info : Advanced Video Codec
Format profile :
Format settings : CABAC / 3 Ref Frames
Format settings, CABAC : Yes
Format settings, ReFrames : 3 frames
Codec ID : V_MPEG4/ISO/AVC
Duration : 1 h 28 min
Bit rate mode : Variable
Bit rate : 4 460 kb/s
Nominal bit rate : 6 490 kb/s
Maximum bit rate : 9 735 kb/s
Width : 1 920 pixels
Height : 1 080 pixels
Display aspect ratio : 16:9
Frame rate mode : Constant
Frame rate : 23.976 (24000/1001) FPS
Color space : YUV
Chroma subsampling : 4:2:0
Bit depth : 8 bits
Scan type : Progressive
Bits/(Pixel*Frame) : 0.090
Stream size : 2.74 GiB (78%)
Writing library : x264 core 148 r2727 7d026e8
Encoding settings : cabac=1 / ref=3 / deblock=1:0:0 / analyse=0x1:0x111 / me=umh / subme=10 / psy=1 / psy_rd=1.00:0.00 / mixed_ref=1 / me_range=24 / chroma_me=1 / trellis=2 / 8x8dct=0 / cqm=0 / deadzone=21,11 / fast_pskip=1 / chroma_qp_offset=-2 / threads=8 / lookahead_threads=1 / sliced_threads=0 / nr=0 / decimate=1 / interlaced=0 / bluray_compat=0 / stitchable=1 / constrained_intra=0 / bframes=2 / b_pyramid=0 / b_adapt=2 / b_bias=0 / direct=3 / weightb=1 / open_gop=0 / weightp=2 / keyint=250 / keyint_min=23 / scenecut=0 / intra_refresh=0 / rc_lookahead=48 / rc=2pass / mbtree=1 / bitrate=6490 / ratetol=1.0 / qcomp=0.50 / qpmin=6 / qpmax=51 / qpstep=4 / cplxblur=20.0 / qblur=0.5 / vbv_maxrate=9735 / vbv_bufsize=12980 / nal_hrd=vbr / filler=0 / ip_ratio=1.40 / aq=1:1.00
Language : English
Default : Yes
Forced : No
Audio #1
ID : 2
Format : E-AC-3
Format/Info : Enhanced AC-3
Commercial name : Dolby Digital Plus
Codec ID : A_EAC3
Duration : 1 h 28 min
Bit rate mode : Constant
Bit rate : 640 kb/s
Channel(s) : 6 channels
Channel positions : Front: L C R, Side: L R, LFE
Sampling rate : 48.0 kHz
Frame rate : 31.250 FPS (1536 SPF)
Compression mode : Lossy
Stream size : 403 MiB (11%)
Language : Ukrainian
Service kind : Complete Main
Default : Yes
Forced : No
Audio #2
ID : 3
Format : E-AC-3
Format/Info : Enhanced AC-3
Commercial name : Dolby Digital Plus
Codec ID : A_EAC3
Duration : 1 h 28 min
Bit rate mode : Constant
Bit rate : 640 kb/s
Channel(s) : 6 channels
Channel positions : Front: L C R, Side: L R, LFE
Sampling rate : 48.0 kHz
Frame rate : 31.250 FPS (1536 SPF)
Compression mode : Lossy
Stream size : 403 MiB (11%)
Language : English
Service kind : Complete Main
Default : No
Forced : No
Text #1
ID : 4
Format : UTF-8
Codec ID : S_TEXT/UTF8
Codec ID/Info : UTF-8 Plain Text
Duration : 1 h 26 min
Bit rate : 12 b/s
Count of elements : 124
Stream size : 7.97 KiB (0%)
Title : Forced
Language : Ukrainian
Default : Yes
Forced : Yes
Text #2
ID : 5
Format : UTF-8
Codec ID : S_TEXT/UTF8
Codec ID/Info : UTF-8 Plain Text
Duration : 1 h 26 min
Bit rate : 159 b/s
Count of elements : 1471
Stream size : 101 KiB (0%)
Language : Ukrainian
Default : No
Forced : No
Text #3
ID : 6
Format : UTF-8
Codec ID : S_TEXT/UTF8
Codec ID/Info : UTF-8 Plain Text
Duration : 1 h 26 min
Bit rate : 114 b/s
Count of elements : 1560
Stream size : 72.1 KiB (0%)
Language : English
Default : No
Forced : No
Скріншоти:[spoiler=""]
Джерело:
Особиста оцінка: 0 - нема часу на весь контент, але загалом має бути непогана документалістика

Anonymous

Опублікувати 13-Чер-2022 11:59

[Цитувати]

Скеля Фреглів … За кулісами/ Down A Fraggle Rock... Behind The Scenes...(1987)TVRip Жанр: мюзикл, анімація, сімейний, документальний
Країна: США

Телеканал / кіностудія: Canadian Broadcasting Corporation (CBC),Jim Henson Television,The Jim Henson Company
Режисер: Джим Хенсон
Актори: Джим Генсон, Карел Прел, Джері Нельсон, Річард Хант
Сюжет:Документальний фільм, в якому Джим Хенсон розповідає про різні аспекти серіалу, від розробки до дизайну та кастингу, а також про технічні прийоми, використання музики та міжнародні версіїТривалість: 00:48:24
Якість: TVRip
Відео:
кодек: MPEG-2 SVCD
розмір кадру: 720x576
бітрейт: 3562 кб/с
Аудіо:
мова: українська
переклад: багатоголосий закадровий
кодек: MP3
бітрейт: 192 кб/с
Джерело:
Особиста оцінка: 10 - без зайвих вагань рекомендую всім!

Anonymous

Опублікувати 13-Чер-2022 11:58

[Цитувати]

AVC | 1080p-Зелена планета (Сезон 1, серії 1-2) / The Green Planet (Season 1, Episodes 1-2) (2022) BDRip-AVC Ukr/Eng | sub Ukr/Eng
Жанр: документальний
Країна: Велика Британія

Кінокомпанія: BBC
Режисери: Пол Вільямс, Пітер Бассет, Елізабет Оукгем, Розі Томас
Оповідач: Девід Аттенборо / David Attenborough
Сюжет:Рослини живуть таємним життям, але в їхньому прихованому світі та часі вони такі ж агресивні, змагальні та драматичні, як тварини, і змушені відчайдушно битися за їжу, світло, розмноження та своє потомство. Серіал, знятий разом із сером Девідом Аттенборо, використовує новітні технології, завдяки яким уперше в історії вдалося зафільмувати цей захоплюючий невидимий світ. «Зелена планета» відкриє його, як ніколи раніше.Тривалість: ~1 год. серія (цілком серій: 5)
Перелік серій:
1. Тропічні світи / Tropical Worlds
2. Водні світи / Water Worlds

3. Seasonal Worlds
4. Desert Worlds
5. Human World

Якість: BDRip-AVC
Відео:
кодек: H.264
розмір кадру: 1024x576
бітрейт: ~1600 кб/с
Аудіо # 1:
мова: українська
переклад: одноголосий закадровий | Logos71
кодек: AC3 5.1
бітрейт: 448 кб/с
Аудіо # 3:
мова: англійська
переклад: оригінал
кодек: AC3 5.1
бітрейт: 448 кб/с
Субтитри # 1:
мова: українська | Logos71
тип: програмні (м'які)
формат: *.srt
Субтитри # 2:
мова: англійська
тип: програмні (м'які)
формат: *.srt
Джерело:

Anonymous

Опублікувати 13-Чер-2022 11:58

[Цитувати]

AVC | 1080p-Зелена планета (Сезон 1, серії 1-2) / The Green Planet (Season 1, Episodes 1-2) (2022) BDRip 1080p Ukr/Eng | sub Ukr/Eng
Жанр: документальний
Країна: Велика Британія

Кінокомпанія: BBC
Режисери: Пол Вільямс, Пітер Бассет, Елізабет Оукгем, Розі Томас
Оповідач: Девід Аттенборо / David Attenborough
Сюжет:Рослини живуть таємним життям, але в їхньому прихованому світі та часі вони такі ж агресивні, змагальні та драматичні, як тварини, і змушені відчайдушно битися за їжу, світло, розмноження та своє потомство. Серіал, знятий разом із сером Девідом Аттенборо, використовує новітні технології, завдяки яким уперше в історії вдалося зафільмувати цей захоплюючий невидимий світ. «Зелена планета» відкриє його, як ніколи раніше.Тривалість: ~1 год. серія (цілком серій: 5)
Перелік серій:
1. Тропічні світи / Tropical Worlds
2. Водні світи / Water Worlds

3. Seasonal Worlds
4. Desert Worlds
5. Human World

Якість: BDRip 1080p [GREENFiNGERS]
Відео:
кодек: H.264
розмір кадру: 1920x1080
бітрейт: ~12.6 Мбіт/сек
Аудіо # 1:
мова: українська
переклад: одноголосий закадровий | Logos71
кодек: DTS-HD 5.1
бітрейт: 1509 кб/с
Аудіо # 2:
мова: українська
переклад: одноголосий закадровий | Logos71
кодек: AC3 5.1
бітрейт: 640 кб/с
Аудіо # 3:
мова: англійська
переклад: оригінал
кодек: Dolby TrueHD+Atmos 7.1
бітрейт: 4998 кб/с
Субтитри # 1:
мова: українська | Logos71
тип: програмні (м'які)
формат: *.srt
Субтитри # 2:
мова: англійська
тип: програмні (м'які)
формат: *.srt
Джерело:

Anonymous

Опублікувати 13-Чер-2022 11:58

[Цитувати]

Повернення в космос / Return to Space (2022) WEB-DL 1080p Ukr/Eng | Sub Ukr/Eng Жанр: Документалістика про науку й природу
Країна: США

Кінокомпанія / телеканал: Little Monster Films
Режисер: Джиммі Чін, Елізабет Чай Васаргелі
Актори: Ілон Маск, Джим Брайнденстайн, Даґ Герлі, Боб Бенкен, Тім Додд, Лорі Гарвер, Ґвінн Шотвелл, Ларс Блеквал та інші
Сюжет:Ілон Маск і інженери SpaceX вирушають на історичне завдання, щоб повернути астронавтів НАСА на міжнародну космічну станцію, показуючи новий клас позапланетних подорожей.Тривалість: 02:08:10
Якість: WEB-DL
Відео:
кодек: H.264
розмір кадру: 1920 х 1080
бітрейт: ~3890 кб/с
Аудіо # 1:
мова: українська
переклад: багатоголосий закадровий | ТТП
кодек: E-AC3
бітрейт: 640 кб/с

Інформація про озвучення

Аудіо # 2:
мова: англійська
переклад: оригінал
кодек: E-AC3 5.1
бітрейт: 768 кб/с
Субтитри # 1-2:
мова: українська
тип: програмні (м'які)
формат: *.srt
переклад: Анна Туркіна
Субтитри # 3:
мова: англійська
тип: програмні (м'які)
формат: *.srt

Mediainfo

Format : Matroska
Format version : Version 4 / Version 2
File size : 4.84 GiB
Duration : 2 h 8 min
Overall bit rate mode : Variable
Overall bit rate : 5 405 kb/s
Encoded date : UTC 2022-04-07 13:25:49
Writing application : mkvmerge v31.0.0 ('Dolores In A Shoestand') 64-bit
Writing library : libebml v1.3.6 + libmatroska v1.4.9
Video
ID : 1
Format : AVC
Format/Info : Advanced Video Codec
Format profile :
Format settings : CABAC / 3 Ref Frames
Format settings, CABAC : Yes
Format settings, ReFrames : 3 frames
Codec ID : V_MPEG4/ISO/AVC
Duration : 2 h 8 min
Bit rate mode : Variable
Bit rate : 3 891 kb/s
Maximum bit rate : 6 960 kb/s
Width : 1 920 pixels
Height : 1 080 pixels
Display aspect ratio : 16:9
Frame rate mode : Constant
Frame rate : 23.976 (24000/1001) FPS
Color space : YUV
Chroma subsampling : 4:2:0
Bit depth : 8 bits
Scan type : Progressive
Bits/(Pixel*Frame) : 0.078
Stream size : 3.58 GiB (74%)
Writing library : x264 core 148 r2727 7d026e8
Encoding settings : cabac=1 / ref=3 / deblock=1:0:0 / analyse=0x1:0x111 / me=umh / subme=10 / psy=1 / psy_rd=1.00:0.00 / mixed_ref=1 / me_range=24 / chroma_me=1 / trellis=2 / 8x8dct=0 / cqm=0 / deadzone=21,11 / fast_pskip=1 / chroma_qp_offset=-2 / threads=8 / lookahead_threads=1 / sliced_threads=0 / nr=0 / decimate=1 / interlaced=0 / bluray_compat=0 / stitchable=1 / constrained_intra=0 / bframes=2 / b_pyramid=0 / b_adapt=2 / b_bias=0 / direct=3 / weightb=1 / open_gop=0 / weightp=2 / keyint=250 / keyint_min=23 / scenecut=0 / intra_refresh=0 / rc_lookahead=48 / rc=2pass / mbtree=1 / bitrate=3891 / ratetol=1.0 / qcomp=0.50 / qpmin=6 / qpmax=51 / qpstep=4 / cplxblur=20.0 / qblur=0.5 / vbv_maxrate=6960 / vbv_bufsize=9280 / nal_hrd=vbr / filler=0 / ip_ratio=1.40 / aq=1:1.00
Default : Yes
Forced : No
Audio #1
ID : 2
Format : E-AC-3
Format/Info : Enhanced AC-3
Commercial name : Dolby Digital Plus
Codec ID : A_EAC3
Duration : 2 h 8 min
Bit rate mode : Constant
Bit rate : 640 kb/s
Channel(s) : 6 channels
Channel positions : Front: L C R, Side: L R, LFE
Sampling rate : 48.0 kHz
Frame rate : 31.250 FPS (1536 SPF)
Compression mode : Lossy
Stream size : 587 MiB (12%)
Language : Ukrainian
Service kind : Complete Main
Default : Yes
Forced : No
Audio #2
ID : 3
Format : E-AC-3
Format/Info : Enhanced AC-3
Commercial name : Dolby Digital Plus with Dolby Atmos
Format profile : E-AC-3 JOC / E-AC-3
Codec ID : A_EAC3
Duration : 2 h 8 min
Bit rate mode : Constant
Bit rate : 768 kb/s
Channel(s) : 6 channels
Channel positions : Front: L C R, Side: L R, LFE
Sampling rate : 48.0 kHz
Frame rate : 31.250 FPS (1536 SPF)
Compression mode : Lossy
Stream size : 704 MiB (14%)
Language : English
Service kind : Complete Main
Default : No
Forced : No
Complexity index : 16
Number of dynamic objects : 15
Bed channel count : 1 channel
Bed channel configuration : LFE
Text #1
ID : 4
Format : UTF-8
Codec ID : S_TEXT/UTF8
Codec ID/Info : UTF-8 Plain Text
Duration : 2 h 6 min
Bit rate : 4 b/s
Count of elements : 75
Stream size : 4.29 KiB (0%)
Title : Forced
Language : Ukrainian
Default : Yes
Forced : Yes
Text #2
ID : 5
Format : UTF-8
Codec ID : S_TEXT/UTF8
Codec ID/Info : UTF-8 Plain Text
Duration : 2 h 6 min
Bit rate : 120 b/s
Count of elements : 1916
Stream size : 111 KiB (0%)
Language : Ukrainian
Default : No
Forced : No
Text #3
ID : 6
Format : UTF-8
Codec ID : S_TEXT/UTF8
Codec ID/Info : UTF-8 Plain Text
Duration : 1 h 47 min
Bit rate : 3 b/s
Count of elements : 92
Stream size : 2.92 KiB (0%)
Title : Forced
Language : English
Default : No
Forced : Yes
Text #4
ID : 7
Format : UTF-8
Codec ID : S_TEXT/UTF8
Codec ID/Info : UTF-8 Plain Text
Duration : 2 h 3 min
Bit rate : 100 b/s
Count of elements : 2112
Stream size : 91.1 KiB (0%)
Language : English
Default : No
Forced : No
Скріншоти:[spoiler=""]
Джерело:
Особиста оцінка: 10 - для поціновувачів святого Ілона та фанатів космосу

Anonymous

Опублікувати 13-Чер-2022 11:58

[Цитувати]

Тачки: Натхнення для фільму / The Inspiration for Cars (2006) Ukr Жанр: документальний
Країна: США
Телеканал / кіностудія: Walt Disney Pictures, Pixar Animation Studio
Режисер: Рік Батлер
Актори: Джон Лассетер, Джо Ранфт, Майкл Волліс та інші
Сюжет:Документальний фільм про те, що надихало творців фільму Тачки.Тривалість: 00:16:05
Якість: DVDRip
Відео:
кодек: H.264
розмір кадру: 854 х 480
бітрейт: 852 кб/с
Аудіо:
мова: українська
переклад: багатоголосий закадровий
кодек: AAC 2.0
бітрейт: 136 кб/с

Інформація про озвучення

Ролі озвучували:
Олексій Великий
Владислав Бондарук
Віктор Великий

Скріншоти



Підтримати проєкт фінансово можна на патреоні - https://www.patreon.com/Ukrofon
Джерело: &
Особиста оцінка: 10 - без зайвих вагань рекомендую всім!
 

Поточний час: 04-Лип 21:31

Часовий пояс: UTC ± 0