Пошук знайшов 500 збігів

Автор Повідомлення

Anonymous

Опублікувати 15-Чер-2022 21:20

[Цитувати]

Незбагненна Ахарен / Aharen-san wa Hakarenai
MyAnimeList 7,7 (6 138 голосів)
Жанр: шьонен, повсякденність, комедія, аніме
Країна: Японія
Період трансляції: з 02.04.2022 по ??.??.2022
Аніместудії: Felix Film
Режисер: Макіно Томое, Ямамото Ясутака
Ролі озвучують: Мінасе Інорі, Терашіма Такума, Фуджівара Нацумі та ін.
Сюжет:Рейна Ахарен, мила учениця старшої школи, погано відчуває межі особистого простору інших людей. Іноді вона може не випускати вас з обіймів, а за мить – ніби віддалятися на кілометри! Єдиний, хто намагається її зрозуміти, – Райдо Мацубоші, який сидить за сусідньою партою.
Знайомство Райдо й Ахарен стало поштовхом до початку незвичайної дружби. Чи не стануть наші герої більше, ніж друзями? Для з'ясування істини їм доведеться пройти через безліч кумедних ситуацій і подолати непрості виклики.
Кількість епізодів: 9 з 12
Тривалість: 23 хв. 57 сек. / 1еп.

Перелік серій

01. Хіба це не занадто близько?
02. За нами стежать?
03. Пересідаємо?
04. Ти не занадто захопилася?
05. Воно не занадто важке?
06. Ми зможемо підкорити світ?
07. Хіба це не мистецтво?
08. Скоро літній фестиваль?
09. Я захворів?
10.
11.
12.
Якість: WEBDL 1080p
Відео:
кодек: H.264
розмір кадру: 1 920 x 1 080 пікс.
бітрейт: ~2 000 кбіт/сек.
Аудіо #1:
озвучення: багатоголосе, закадрове | Сlan Kaizoku
мова: українська
кодек: AAC 2.0
бітрейт: ~312 кбіт/сек
Аудіо #2:
мова: японська, оригінал
кодек: AAC 2.0
бітрейт: 128 кбіт/сек
Субтитри #1-2:
мова: українська (написи та повні субтитри)
тип: програмні (м'які)
формат: *.ass-Озвучення: Сашко, Reniko та Юллі Дзиґа
Переклад: Морейн
Оформлення написів: Fanat22012
Робота зі звуком: Svone
Постер: Д.-ПІДТРИМАТИ КЛАН КАЙЗОКУ МОЖНА ТУТ-

Скріншоти

Трейлер: https://www.youtube.com/embed/ohrB0C9OlvQДжерело озвучення: Clan Kaizoku
Особиста оцінка: 10 - без зайвих вагань рекомендую всім!

Anonymous

Опублікувати 15-Чер-2022 21:20

[Цитувати]

У Комі проблеми зі спілкуванням (Сезон 2; серії 01-10 з 12) / Komi Can't Communicate / Komi-san wa, Comyushou desu (Season 2) (2022) WEBDL 1080p 1 сезонЖанр: повсякденність, комедія, школа, шьонен
Країна: Японія

0 (0 голосів)
Кінокомпанія: OLM
Режисер: Аюму Ватанабе
Ролі озвучують: Аой Коґа, Юкійо Фуджі, Ріна Хідака, Румі Окубо, Хоріко Хідака та ін.
Сюжет:Красуня Комі дуже неговірка. Ба більше, вона страждає на комунікативний розлад. Ніхто з учнів приватної елітної старшої школи не бачив, щоб Комі з кимось розмовляла. І ніхто про неї нічого не знає. Однак, якщо у людини є проблеми у спілкуванні, це ще не значить, що вона не хоче спілкуватися.Тривалість: 1 серія: ~24 хв (цілком серій: 12)

Перелік серій

01. Зима настає / Історія прогульника / Навчання вдома в Наканаки / Підсумковий іспит
02. Тайфун / Фантазії / Котокафе / Любовна гра
03. Почуття / Фантазії №2 / Запрошення на обід / Печений батат
04. Щасливого Різдва
05. Сніговик / Гра в сніжки / Кінець року
06. Як і кожного Нового року / Катання на ковзанах / Звичайна застуда
07. Непорозуміння / Галюцинація / Нарцис / Розподіл на групи для шкільної екскурсії
08. Шкільна поїздка
09. Шкільна поїздка, день 2
10. День святого Валентина
11.
12.
Якість: WEBDLRip
Відео:
кодек: H.264
розмір кадру: 1920 х 1080
бітрейт: 5800 кб/с
Аудіо:
мова: українська
переклад: двоголосий закадровий
кодек: AAC 2.0
бітрейт: 256 кб/с
Джерело озвучення:

Субтитри (тільки написи):
мова: українська
тип: програмні (м'які)
формат: *.ass

MediaInfo

General
Unique ID : 324200768933187986609305775906517718675 (0xF3E6CC00DD1D05F79719816BED009693)
Complete name : V:\complete\ongoing\Komi-san wa Comyushou desu s02 [WEBDL 1080p]\Komi-san wa Comyushou desu s02e01 (WEBDL x264 1080 AAC) UKR DVO.mkv
Format : Matroska
Format version : Version 4
File size : 1.00 GiB
Duration : 23 min 53 s
Overall bit rate mode : Variable
Overall bit rate : 6 013 kb/s
Encoded date : UTC 2022-04-07 21:21:30
Writing application : mkvmerge v45.0.0 ('Heaven in Pennies') 64-bit
Writing library : libebml v1.3.10 + libmatroska v1.5.2
Cover : Yes
Attachments : cover.jpg
Video
ID : 1
Format : AVC
Format/Info : Advanced Video Codec
Format profile :
Format settings : CABAC / 3 Ref Frames
Format settings, CABAC : Yes
Format settings, Reference : 3 frames
Codec ID : V_MPEG4/ISO/AVC
Duration : 23 min 51 s
Bit rate mode : Variable
Bit rate : 5 800 kb/s
Maximum bit rate : 8 700 kb/s
Width : 1 920 pixels
Height : 1 080 pixels
Display aspect ratio : 16:9
Frame rate mode : Constant
Frame rate : 23.976 (24000/1001) FPS
Color space : YUV
Chroma subsampling : 4:2:0
Bit depth : 8 bits
Scan type : Progressive
Bits/(Pixel*Frame) : 0.117
Stream size : 983 MiB (96%)
Title : 01
Writing library : x264 core 148 r2727 7d026e8
Encoding settings : cabac=1 / ref=3 / deblock=1:0:0 / analyse=0x1:0x111 / me=umh / subme=10 / psy=1 / psy_rd=1.00:0.00 / mixed_ref=1 / me_range=24 / chroma_me=1 / trellis=2 / 8x8dct=0 / cqm=0 / deadzone=21,11 / fast_pskip=1 / chroma_qp_offset=-2 / threads=8 / lookahead_threads=1 / sliced_threads=0 / nr=0 / decimate=1 / interlaced=0 / bluray_compat=0 / stitchable=1 / constrained_intra=0 / bframes=2 / b_pyramid=0 / b_adapt=2 / b_bias=0 / direct=3 / weightb=1 / open_gop=0 / weightp=2 / keyint=250 / keyint_min=23 / scenecut=0 / intra_refresh=0 / rc_lookahead=48 / rc=2pass / mbtree=1 / bitrate=5800 / ratetol=1.0 / qcomp=0.50 / qpmin=6 / qpmax=51 / qpstep=4 / cplxblur=20.0 / qblur=0.5 / vbv_maxrate=8700 / vbv_bufsize=11600 / nal_hrd=vbr / filler=0 / ip_ratio=1.40 / aq=1:1.00
Language : Japanese
Default : Yes
Forced : Yes
Audio
ID : 2
Format : AAC LC
Format/Info : Advanced Audio Codec Low Complexity
Codec ID : A_AAC-2
Duration : 23 min 53 s
Bit rate : 255 kb/s
Channel(s) : 2 channels
Channel layout : L R
Sampling rate : 48.0 kHz
Frame rate : 46.875 FPS (1024 SPF)
Compression mode : Lossy
Stream size : 43.6 MiB (4%)
Title : DVO [Gwean & Maslinka]
Language : Ukrainian
Default : Yes
Forced : Yes
Text
ID : 3
Format : ASS
Codec ID : S_TEXT/ASS
Codec ID/Info : Advanced Sub Station Alpha
Duration : 22 min 40 s
Bit rate : 47 b/s
Count of elements : 77
Compression mode : Lossless
Stream size : 7.82 KiB (0%)
Title : написи
Language : Ukrainian
Default : Yes
Forced : Yes
Menu
00:00:00.000 : Part 01
00:22:24.450 : Credits

Скріншоти





Озвучення: Gwean & Maslinka
Постер: ЗіґЗаґ95Якщо бажаєте підтримати наше озвучення, можете підписатись на наш Patreon. Деталі за посиланням нижче>>>ПОДЯКУВАТИ<<<

Anonymous

Опублікувати 15-Чер-2022 21:20

[Цитувати]

Літня пора (серії 01-09 з 25) / Summertime Render (2022) WEBDL 1080p H.265 Жанр: надприродне, трилер, шьонен
Країна: Японія

0 (0 голосів)
Кінокомпанія: OLM
Режисер: Аюму Ватанабе
Ролі озвучують: Нацукі Нанае, Анна Наґасе, Сахо Шірасу, Йоко Хікаса та ін
Сюжет:Шімпей повертається в рідне місто, щоб провести в останню путь подругу дитинства Ушіо, яка загинула, намагаючись урятувати дитину. Але згодом з'ясовується, що смерть Ушіо була не нещасним випадком, а вбивством.Тривалість: 1 серія: 24 хв (цілком серій: 25)

Перелік серій

01. Такі довгі літні дні
02. Тінь
03. Прибита до берега
04. Жамевю
05. Вир
06. Орбітальний резонанс
07. Ворог
08. Реліквія
09. Нехай котяться сльози
10.
11.
12.
13.
14.
15.
16.
17.
18.
19.
20.
21.
22.
23.
24.
25.
Якість: WEBDL
Відео:
кодек: H.265 (HEVC)
розмір кадру: 1920x1080
бітрейт: 2607 кб/с-Увага! Перед завантаженням переконайтесь, що ваш пристрій відтворення (та/або ПЗ) підтримує H.265 (HEVC)-Аудіо:
мова: українська
переклад: двоголосий закадровий
кодек: AAC 2.0
бітрейт: 256 кб/с
Субтитри (тільки написи):
мова: українська
тип: програмні (м'які)
формат: .ass

Скріншоти





https://www.youtube.com/embed/P5SfDkeaNt0Озвучення: Gwean & Malinka
Постер: ЗіґЗаґ95Підтримайте наше озвучення на Patreon. Деталі за посиланням нижче>>>ПОДЯКУВАТИ<<<

Anonymous

Опублікувати 15-Чер-2022 21:20

[Цитувати]

Вампір миттєвого вмирання (Сезон 1) / Kyuuketsuki Sugu Shinu / The Vampire dies in no time (Season 1) (2021) WEBDL 1080p Ukr/Jap | Sub Ukr
MyAnimeList 7.23 (22 190 голосів)
Жанр: драма, бойовик, надприроднє, аніме
Країна: Японія
Період трансляції: з 04.10.2021 по ??.??.2021
Аніместудії: Madhouse
Режисер: Коджіна Хіроші
Ролі озвучують: Тамура Муцумі, Фурукава Макото, Фукуяма Джн, Хіока Нацумі, Мацуока Йошіцуґу та інші
Сюжет: Подейкують, вампіри мають слабкість до часнику, хрестів та сонячного світла. Але вампір-задротисько Лорд Дралук на диво має слабкість до... ВСЬОГО! Він може вмерти й розсипатись на попіл навіть від звичайного пориву вітру.
Після того, як мисливець на вампірів Рональд дізнається, що у таємничому замку мешкає вампір, котрий, якщо вірити чуткам, викрадає дітлахів, мисливець вирушає туди з наміром раз і назавжди винищити цю нечисть! Одначе, виявляється, тим вампіром є Дралук, нікчема, який тільки те й робить, що розсипається у прах. Ба більше, ніяких дітей він не викрадав, те дитя саме залазило туди задля забави.
Та випадком долі Дралуку доведеться перебратися жити до Рональда в офіс. Попри їхні відмінності вони муситимуть разом працювати, щоби дати відсіч лячним вампірам, вбивчим редакторам, триклятим розслідувачам та ще бозна-кому... і кожнісінького разу Дралук копита відкидатиме

Кількість епізодів: 12
Тривалість: 24 хв. 29 сек. / 1еп.

Перелік серій

01. Мисливець прийшов і полетів у небокрай! / Бовдур, цілодобовий магазинчик та мінливість
02. До бою! Це пан Фукума! / Смертоносне милування квітами / А удар об стіну вб'є його?
03. Дорога до успіху - шлях до невдачі / Ненормальна гільдія мисливців / Ще більше ненормальної гільдії мисливців
04. У мене є певні прагнення, тому я перетворююся / Загін з визволення кухні / Чоловік на ймення Ханда
05. Найдовша ніч Цуджіґірі Наґірі / Котики дуже милі / Вихідний Ханди та його минуле
06. Сказання про вродини Імператриці / Сім'я Дралуки / Сім'я Дралуки, продовження
07. Хтиво-хтиво-хтивомовець!!! / Найжахливіший вихідний Ханди То / А тоді прийшов батько
08. Кажан потрапив у конкретну халепу / Надумане викрадення / Велика трагедія викрадача
09. Камінь-ножиці-папір / Сталева ліва якась нудна / Імператор узбережжя
10. Фестивальна музика кличе / Сутичка з достобіса неприємним вампіром у Шін-Йоко / Усенічна Шін-Йоко Дралуки
11. Королівська заруба у Шін-Йоко / Зустріч Івана з Дралукою / В очікування на любов
12. Сріблястий схід місяця засліпить твої очі / Косплейчик для тебе / П'ять дурнуватих змагів
Якість: WEBDL 1080p
Відео:
кодек: H.264
розмір кадру: 1 920 x 1 080 пікс.
бітрейт: ~2 000 кбіт/сек.
Аудіо #1:
озвучення: багатоголосе, закадрове | Сlan Kaizoku
мова: українська
кодек: AAC 2.0
бітрейт: 256 кбіт/сек
Аудіо #2:
мова: японська, оригінал
кодек: AAC 2.0
бітрейт: 256 кбіт/сек
Субтитри #1-2:
мова: українська (написи та повні субтитри)
тип: програмні (м'які)
формат: *.ass-Озвучення: Sanyco, Sollmarinn, Stepalex, Eredelka та Веселий Роджер з Локі
Переклад: Fanat22012
Редакція: Eredelka
Робота зі звуком: Клан Кайзоку
Постер: Wecrani-КИНУТИ ГРИВАСИКОМ У КЛАНУ КАЙЗОКУ МОЖНА ТУТ-

MediaInfo

Загальна інформація
Унікальний ID : 28200329448696825794696059806046761351 (0x15372F96A9B239C032486AD43FA03187)
Повна назва : K:\Власні релізи\Clan Kaizoku - Клан Кайзоку\Вампір миттєвого вмирання [1080p][Clan Kaizoku]\Вампір миттєвого вмирання – 01 [1080p][Clan Kaizoku].mkv
Формат : Matroska
Версія формату : Version 4
Розмір файлу : 438 МіБ
Тривалість : 23 хв. 49 сек.
Загальний бітрейт : 2 570 Кбіт/сек
Дата кодування : UTC 2021-10-09 09:45:15
Програма кодування : mkvmerge v61.0.0 ('So') 64-bit
Бібліотека кодування : libebml v1.4.2 + libmatroska v1.6.4
Обкладинка : Yes
Attachments : cover м1 Вампірко чистий.jpg / V_CCKILLJOY_V1.15.OTF / AGATHA-M.TTF / ENCIENT - ENCIENT GERMAN GOTHIC - REGULAR.TTF / FUTURANEWBOOK-REG - FUTURA NEW - BOOK.TTF / FUTURANEWBOLD-REG - FUTURA NEW - BOLD.TTF / HAN ZI.TTF / TRAJAN PRO 3 SEMIBOLD.OTF / TRAJAN PRO 3 LIGHT.OTF / TRAJAN PRO 3 EXTRALIGHT.OTF / TRAJAN PRO 3 BLACK.OTF / LISICHKA_COMIC.TTF / TT MASTERS DEMO BLACK.OTF / TT MASTERS DEMO BIRDS REGULAR.OTF / TT MASTERS DEMO ROUGH THIN.OTF / ARKHIP_FONT.TTF / TRAJANPRO3-BOLD.OTF / TRAJANPRO3-REGULAR.OTF / EPSILON.TTF
Відео
Ідентифікатор : 1
Формат : AVC
Формат/Відомості : Advanced Video Codec
Профіль формату :
Налаштування формату : CABAC / 4 Ref Frames
Налаштування формату, CABAC : Так
Налаштування формату, RefFrames : 4 кадр(-и,-ів)
Ідентифікатор кодеку : V_MPEG4/ISO/AVC
Тривалість : 23 хв. 47 сек.
Бітрейт : 2 037 Кбіт/сек
Ширина кадру : 1 920 пікс.
Висота кадру : 1 080 пікс.
Співвідношення сторін екрану : 16:9
Режим частоти кадрів : Постійний
Частота кадрів : 23.976 (24000/1001) кадр/сек
Простір кольору : YUV
Субдискретизація хроматичності : 4:2:0
Бітова глибина : 8 біт
Тип сканування : Прогресивний
Біт/(Пікселі*Кадри) : 0.041
Розмір потоку : 347 МіБ (79%)
Бібліотека кодування : x264 core 146 r2538 121396c
Налаштування бібліот. кодування : cabac=1 / ref=3 / deblock=1:1:1 / analyse=0x3:0x113 / me=umh / subme=8 / psy=1 / psy_rd=0.40:0.00 / mixed_ref=1 / me_range=8 / chroma_me=1 / trellis=1 / 8x8dct=1 / cqm=0 / deadzone=21,11 / fast_pskip=1 / chroma_qp_offset=-2 / threads=18 / lookahead_threads=4 / sliced_threads=0 / nr=0 / decimate=1 / interlaced=0 / bluray_compat=0 / constrained_intra=0 / bframes=6 / b_pyramid=2 / b_adapt=2 / b_bias=0 / direct=1 / weightb=1 / open_gop=0 / weightp=2 / keyint=250 / keyint_min=23 / scenecut=40 / intra_refresh=0 / rc_lookahead=60 / rc=crf / mbtree=1 / crf=20.0 / qcomp=0.60 / qpmin=0 / qpmax=69 / qpstep=4 / vbv_maxrate=14000 / vbv_bufsize=14000 / crf_max=0.0 / nal_hrd=none / filler=0 / ip_ratio=1.40 / aq=1:0.60
Default : Так
Forced : Ні
Color range : Limited
Основні кольори : BT.709
Характеристики трансферу : BT.709
Матричні коефіцієнти : BT.709
Аудіо #1
Ідентифікатор : 2
Формат : AAC LC
Формат/Відомості : Advanced Audio Codec Low Complexity
Ідентифікатор кодеку : A_AAC-2
Тривалість : 23 хв. 49 сек.
Бітрейт : 256 Кбіт/сек
Кількість каналів : 2 канал(-и,-ів)
Channel layout : L R
Частота дискретизації : 48.0 кГц
Частота кадрів : 46.875 кадр/сек (1024 SPF)
Тип стиснення : Із втратами
Затримка відносно відео : 9 мс
Розмір потоку : 43.6 МіБ (10%)
Заголовок : Clan Kaizoku(UA)
Мова : Ukrainian
Default : Так
Forced : Ні
Аудіо #2
Ідентифікатор : 3
Формат : AAC LC
Формат/Відомості : Advanced Audio Codec Low Complexity
Ідентифікатор кодеку : A_AAC-2
Тривалість : 23 хв. 47 сек.
Бітрейт : 256 Кбіт/сек
Кількість каналів : 2 канал(-и,-ів)
Channel layout : L R
Частота дискретизації : 48.0 кГц
Частота кадрів : 46.875 кадр/сек (1024 SPF)
Тип стиснення : Із втратами
Розмір потоку : 43.6 МіБ (10%)
Мова : Japanese
Default : Ні
Forced : Ні
Текст #1
Ідентифікатор : 4
Формат : ASS
Ідентифікатор кодеку : S_TEXT/ASS
Ідентифікатор кодеку/Відомості : Advanced Sub Station Alpha
Тривалість : 21 хв. 49 сек.
Бітрейт : 1 303 біт/сек
Count of elements : 1119
Тип стиснення : Без втрат
Розмір потоку : 208 КіБ (0%)
Заголовок : Написи
Мова : Ukrainian
Default : Так
Forced : Ні
Текст #2
Ідентифікатор : 5
Формат : ASS
Ідентифікатор кодеку : S_TEXT/ASS
Ідентифікатор кодеку/Відомості : Advanced Sub Station Alpha
Тривалість : 22 хв. 9 сек.
Бітрейт : 1 508 біт/сек
Count of elements : 1506
Тип стиснення : Без втрат
Розмір потоку : 245 КіБ (0%)
Заголовок : Повні
Мова : Ukrainian
Default : Ні
Forced : Ні

Скріншоти

Джерело озвучення: Clan Kaizoku
Особиста оцінка: 10 - без зайвих вагань рекомендую всім!

Anonymous

Опублікувати 15-Чер-2022 21:20

[Цитувати]

У серці куноічі Цубакі / Kunoichi Tsubaki no Mune no Uchi Вікове обмеження: 12+

Жанр: Пригоди, комедія, повсякденність.
Країна: Японія
Прем'єра: 09.04.2022

Аніме-студія: Clover Works
Режисер: Какучі Такудай
Сейю: Сузушіро Саюмі, Немото Міярі, Нацуйоші Юко та інші.
Сюжет:
З певних причин клас Акане, що складається лише з дівчат, змушений ізолюватися від чоловіків в окремому селищі. Дівчата докладають усіх зусиль, щоб стати вправними куноічі та беззаперечно дотримуються головного правила: "чоловіки небезпечні і взаємодія з ними заборонена".
Цубакі, лідер команди "Собака", намагається якомога більше дізнатися про чоловіків та вивідати причину розділення, проте не все так просто...
В серіалі показані кумедні історії з життя різних команд, їх сварки, змагання та багато інших повчальних ситуацій.
Тривалість: 1 серія / 23хв. 40сек.

Перелік серій

01. Чоловіки небезпечні
02. Старання і обдарованість / Втеча до сестрички
03. Робота в команді / Хованки (з чоловіками)
04. Чоловіки й Жінки / Лікувальна техніка Мокурен
05. Битва за фрукти / Незалежність та пестощі
06. Новенька / Серед незнайомців
07. Рішучість Ріндо / Вечірній призов
08. Найсильніша команда / Сестричка
09. Змії й чоловіки / Що визначає результат
10. Проблеми лідерів команд / Позики та борги
Відео:
якість: WEBDL-Rip
контейнер: mkv
кодек: x265
частота кадрів: 23.976 кадрів/сек.
розмір кадру: 1920х1080 пікс.
бітрейт: ~1 700 kb/s кбіт/сек.
бітність: 10 біт.
Аудіо: мова: українська, багатоголосе закадрове озвучення.
кодек: ac3
кількість каналів: 2.0
бітрейт: 256 кбіт/сек.
частота: 48000 Гц
Субтитри:
мова: українська (тільки написи)
тип: форсовані, програмні (м'які)
формат: *.ass
Джерело релізу та озвучення: творче об'єднання Mavka
переклад: Сноу
текст читали: Lem0nka, Uta, MeloRin, Eredelka, Draakull
робота зі звуком та координація проекту: Arch_Enemy

MediaInfo

General
Unique ID : 234214898968935480522222030468357925534 (0xB034261378598A6F810E99C260B1AA9E)
Complete name : D:\Anime\Kunoichi Tsubaki no Mune no Uchi 1080p\Kunoichi Tsubaki no Mune no Uchi - 01 Mavka 1080p.mkv
Format : Matroska
Format version : Version 4
File size : 347 MiB
Duration : 23 min 50 s
Overall bit rate : 2 034 kb/s
Movie name : Kunoichi Tsubaki no Mune no Uchi - 01
Encoded date : UTC 2022-04-21 19:59:47
Writing application : mkvmerge v40.0.0 ('Old Town Road + Pony') 64-bit
Writing library : libebml v1.3.9 + libmatroska v1.5.2
Attachments : NotoSans-Medium.ttf / ariali.ttf / ARIALN.TTF / ARIALNB.TTF / ARIALNBI.TTF / ARIALNI.TTF / ariblk.ttf / times.ttf / timesbd.ttf / timesbi.ttf / timesi.ttf / trebuc.ttf / trebucbd.ttf / trebucbi.ttf / trebucit.ttf / arial.ttf / arialbd.ttf / arialbi.ttf
Video
ID : 1
Format : HEVC
Format/Info : High Efficiency Video Coding
Format profile : Main @Main
Codec ID : V_MPEGH/ISO/HEVC
Duration : 23 min 40 s
Bit rate : 1 734 kb/s
Width : 1 920 pixels
Height : 1 080 pixels
Display aspect ratio : 16:9
Frame rate mode : Constant
Frame rate : 23.976 (24000/1001) FPS
Color space : YUV
Chroma subsampling : 4:2:0
Bit depth : 10 bits
Bits/(Pixel*Frame) : 0.035
Stream size : 294 MiB (85%)
Title : Kunoichi Tsubaki no Mune no Uchi - 01
Writing library : x265 3.4+26-ga82c6c7a7:[Windows][GCC 10.2.0][64 bit] 10bit
Encoding settings : cpuid=1111039 / frame-threads=5 / numa-pools=+ / wpp / pmode / no-pme / no-psnr / no-ssim / log-level=2 / csv / csv-log-level=2 / input-csp=1 / input-res=1920x1080 / interlace=0 / total-frames=34046 / level-idc=0 / high-tier=1 / uhd-bd=0 / ref=6 / no-allow-non-conformance / no-repeat-headers / annexb / no-aud / no-hrd / info / hash=0 / no-temporal-layers / open-gop / min-keyint=24 / keyint=240 / gop-lookahead=0 / bframes=8 / b-adapt=2 / b-pyramid / bframe-bias=0 / rc-lookahead=120 / lookahead-slices=4 / scenecut=40 / hist-scenecut=0 / radl=0 / no-splice / no-intra-refresh / ctu=64 / min-cu-size=8 / rect / no-amp / max-tu-size=32 / tu-inter-depth=4 / tu-intra-depth=4 / limit-tu=0 / rdoq-level=2 / dynamic-rd=0.00 / no-ssim-rd / signhide / no-tskip / nr-intra=0 / nr-inter=0 / no-constrained-intra / strong-intra-smoothing / max-merge=3 / limit-refs=0 / limit-modes / me=3 / subme=4 / merange=57 / temporal-mvp / no-frame-dup / no-hme / weightp / weightb / no-analyze-src-pics / deblock=-1:-1 / sao / no-sao-non-deblock / rd=4 / selective-sao=4 / no-early-skip / rskip / no-fast-intra / no-tskip-fast / no-cu-lossless / b-intra / no-splitrd-skip / rdpenalty=0 / psy-rd=0.50 / psy-rdoq=1.30 / no-rd-refine / no-lossless / cbqpoffs=-1 / crqpoffs=-1 / rc=crf / crf=20.0 / qcomp=0.64 / qpstep=4 / stats-write=0 / stats-read=0 / ipratio=1.40 / pbratio=1.30 / aq-mode=3 / aq-strength=0.70 / cutree / zone-count=0 / no-strict-cbr / qg-size=32 / no-rc-grain / qpmax=69 / qpmin=0 / no-const-vbv / sar=0 / overscan=0 / videoformat=5 / range=0 / colorprim=2 / transfer=2 / colormatrix=2 / chromaloc=0 / display-window=0 / cll=0,0 / min-luma=0 / max-luma=1023 / log2-max-poc-lsb=8 / vui-timing-info / vui-hrd-info / slices=1 / no-opt-qp-pps / no-opt-ref-list-length-pps / no-multi-pass-opt-rps / scenecut-bias=0.05 / hist-threshold=0.03 / no-opt-cu-delta-qp / no-aq-motion / no-hdr10 / no-hdr10-opt / no-dhdr10-opt / no-idr-recovery-sei / analysis-reuse-level=0 / analysis-save-reuse-level=0 / analysis-load-reuse-level=0 / scale-factor=0 / refine-intra=0 / refine-inter=0 / refine-mv=1 / refine-ctu-distortion=0 / no-limit-sao / ctu-info=0 / no-lowpass-dct / refine-analysis-type=0 / copy-pic=1 / max-ausize-factor=1.0 / no-dynamic-refine / no-single-sei / no-hevc-aq / no-svt / no-field / qp-adaptation-range=1.00 / no-scenecut-aware-qpconformance-window-offsets / right=0 / bottom=0 / decoder-max-rate=0 / no-vbv-live-multi-pass
Language : Japanese
Default : Yes
Forced : Yes
Audio
ID : 2
Format : AC-3
Format/Info : Audio Coding 3
Commercial name : Dolby Digital
Codec ID : A_AC3
Duration : 23 min 50 s
Bit rate mode : Constant
Bit rate : 256 kb/s
Channel(s) : 2 channels
Channel layout : L R
Sampling rate : 48.0 kHz
Frame rate : 31.250 FPS (1536 SPF)
Compression mode : Lossy
Stream size : 43.7 MiB (13%)
Title : Mavka
Language : Ukrainian
Service kind : Complete Main
Default : Yes
Forced : Yes
Text
ID : 3
Format : ASS
Codec ID : S_TEXT/ASS
Codec ID/Info : Advanced Sub Station Alpha
Duration : 23 min 0 s
Bit rate : 11 b/s
Count of elements : 15
Compression mode : Lossless
Stream size : 2.02 KiB (0%)
Title : Signs
Language : Ukrainian
Default : Yes
Forced : Yes

Anonymous

Опублікувати 15-Чер-2022 21:20

[Цитувати]

Платинова межа / Platinum End Вікове обмеження: 18+
MyAnimeList 7.61 (10 380 голосів)
Жанр: драма, бойовик, надприроднє, шьонен, аніме
Країна: Японія
Період трансляції: з 08.10.2021 по ??.??.2021
Аніместудії: Signal.MD
Режисер: Кіса Кадзучіка
Ролі озвучують: Ічімічі Мао, Іріно Мію, Оґура Юй, Ханае Нацукі, Морікава Тошіюкі, Ішікава Кайто та інші
Сюжет:У Міраї Какехаші загинули батьки і після початку життя з родичами, його поглинула депресія та небажання жити. Одного дня його терпіння луснуло і він вирішує покінчити зі своїм життя самогубством.
Та зненацька його рятує білосніжна дівчина Нассе, яка каже, що вона янгол-охоронець. І хоче зробити його щасливим, наділивши надприродними силами та можливістю стати новим Богом.
Та для цього він повинен перемогти 12 інших «кандидатів» на роль Бога впродовж 999 днів...
Кількість епізодів: 23 з 24
Тривалість: 24 хв. 29 сек. / 1еп.

Перелік серій

01. Дарунок від янгола
02. Герой правосуддя
03. Сердешний коханий
04. Час зборів
05. Смертна кара
06. Два не надто приємних варіанти
07. Вежа жахів
08. Символ обіцянки
09. Лице вбивці
10. Де сльози полилися
11. Твоя цінність
12. Чудовий компроміс між нападом і захистом
13. Мир усьому світу
14. Два світочи
15. Сила слова
16. Найкращий у світі вбивця
17. П'ятірка
18. Таємна вечеря
19. Майбутнє людства
20. Ціна честі
21. Час поговорити
22. Крила рішучості
23. Наприкінці роздумів
24. Остання Стріла

Озвучений трейлер

Якість: WEBDL 1080p
Відео:
кодек: H.264
розмір кадру: 1 920 x 1 080 пікс.
бітрейт: ~2 800 кбіт/сек.
Аудіо #1:
озвучення: багатоголосе, закадрове | Сlan Kaizoku
мова: українська
кодек: AAC 2.0
бітрейт: 256 кбіт/сек
Субтитри:
мова: українська (написи)
тип: програмні (м'які)
формат: *.ass-Озвучення: Сашко, Anytka, Eredelka, Арія(1-16), Ідея(17-24), Draakull, Клаптик
за епізодичною участю Веселого Роджера, Кіріаґо та Соллмаріна

Переклад: Kiriago (1-14), Draakull (15-24)
Редакція: Fanat22012
Оформлення написів: Fanat22012
Робота зі звуком: Клан Кайзоку
Постер: Wecrani-СВОЇ ДОНАТИ КЛАНУ КАЙЗОКУ КИДАЙТЕ СЮДИ-

MediaInfo

Загальна інформація
Унікальний ID : 94948570180979643869588034671251250934 (0x476E6DF05BC8E12BD61BE64CB4DF5EF6)
Повна назва : K:\Власні релізи\Clan Kaizoku - Клан Кайзоку\Платинова межа [1080p][Clan Kaizoku]\Платинова межа - 01 [1080p][Clan Kaizoku].mkv
Формат : Matroska
Версія формату : Version 4
Розмір файлу : 490 МіБ
Тривалість : 24 хв. 11 сек.
Загальний бітрейт : 2 834 Кбіт/сек
Дата кодування : UTC 2021-10-13 06:40:27
Програма кодування : mkvmerge v61.0.0 ('So') 64-bit
Бібліотека кодування : libebml v1.4.2 + libmatroska v1.6.4
Обкладинка : Yes
Attachments : cover.jpg / V_CCKILLJOY_V1.15.OTF / GAGALIN REGULAR.OTF
Відео
Ідентифікатор : 1
Формат : AVC
Формат/Відомості : Advanced Video Codec
Профіль формату :
Налаштування формату : CABAC / 4 Ref Frames
Налаштування формату, CABAC : Так
Налаштування формату, RefFrames : 4 кадр(-и,-ів)
Ідентифікатор кодеку : V_MPEG4/ISO/AVC
Тривалість : 24 хв. 9 сек.
Бітрейт : 2 576 Кбіт/сек
Ширина кадру : 1 920 пікс.
Висота кадру : 1 080 пікс.
Співвідношення сторін екрану : 16:9
Режим частоти кадрів : Постійний
Частота кадрів : 23.976 (24000/1001) кадр/сек
Простір кольору : YUV
Субдискретизація хроматичності : 4:2:0
Бітова глибина : 8 біт
Тип сканування : Прогресивний
Біт/(Пікселі*Кадри) : 0.052
Розмір потоку : 445 МіБ (91%)
Бібліотека кодування : x264 core 146 r2538 121396c
Налаштування бібліот. кодування : cabac=1 / ref=3 / deblock=1:1:1 / analyse=0x3:0x113 / me=umh / subme=8 / psy=1 / psy_rd=0.40:0.00 / mixed_ref=1 / me_range=8 / chroma_me=1 / trellis=1 / 8x8dct=1 / cqm=0 / deadzone=21,11 / fast_pskip=1 / chroma_qp_offset=-2 / threads=18 / lookahead_threads=4 / sliced_threads=0 / nr=0 / decimate=1 / interlaced=0 / bluray_compat=0 / constrained_intra=0 / bframes=6 / b_pyramid=2 / b_adapt=2 / b_bias=0 / direct=1 / weightb=1 / open_gop=0 / weightp=2 / keyint=250 / keyint_min=23 / scenecut=40 / intra_refresh=0 / rc_lookahead=60 / rc=crf / mbtree=1 / crf=20.0 / qcomp=0.60 / qpmin=0 / qpmax=69 / qpstep=4 / vbv_maxrate=14000 / vbv_bufsize=14000 / crf_max=0.0 / nal_hrd=none / filler=0 / ip_ratio=1.40 / aq=1:0.60
Мова : Japanese
Default : Так
Forced : Ні
Color range : Limited
Основні кольори : BT.709
Характеристики трансферу : BT.709
Матричні коефіцієнти : BT.709
Аудіо
Ідентифікатор : 2
Формат : AAC LC
Формат/Відомості : Advanced Audio Codec Low Complexity
Ідентифікатор кодеку : A_AAC-2
Тривалість : 24 хв. 11 сек.
Бітрейт : 256 Кбіт/сек
Кількість каналів : 2 канал(-и,-ів)
Channel layout : L R
Частота дискретизації : 48.0 кГц
Частота кадрів : 46.875 кадр/сек (1024 SPF)
Тип стиснення : Із втратами
Затримка відносно відео : 9 мс
Розмір потоку : 44.3 МіБ (9%)
Заголовок : Clan Kaizoku(UA)
Мова : Ukrainian
Default : Так
Forced : Ні
Текст
Ідентифікатор : 3
Формат : ASS
Ідентифікатор кодеку : S_TEXT/ASS
Ідентифікатор кодеку/Відомості : Advanced Sub Station Alpha
Тривалість : 18 хв. 8 сек.
Бітрейт : 37 біт/сек
Count of elements : 29
Тип стиснення : Без втрат
Розмір потоку : 5.04 КіБ (0%)
Заголовок : Написи
Мова : Ukrainian
Default : Так
Forced : Ні

Скріншоти

Джерело озвучення: Clan Kaizoku
Особиста оцінка: 10 - без зайвих вагань рекомендую всім!

Anonymous

Опублікувати 15-Чер-2022 21:20

[Цитувати]

Усмішка з подіуму! / Runway de Waratte
MyAnimeList 7.59 (46 223 голосів)
Жанр: драма, повсякденність, шьонен, аніме
Країна: Японія
Аніместудії: Ezόla
Режисер: Наґаяма Нобуйоші
Ролі озвучують: Ханаморі Юмірі, Нанае Нацукі, Каяно Ай, Ішікава Юі, Сува Аяка та ін.
Сюжет:Чіюкі Фуджіто, донька директора успішного модельного агентства, завжди мріяла стати топмоделлю і підкорити подіум на одному з найвідоміших модних показів – Тижня моди в Парижі. І хоча всі пророкували дівчинці світле майбутнє у світі моди, її життя все ж склалося інакше, і через певні життєві обставини вона зрозуміла, що шлях до подіуму буде значно тернистішим, ніж їй здавалося. Але на цьому тернистому шляху вона зустрічає такого ж супутника по мрії та нещастю – Ікуто Цумуру, і разом вони починають торувати шлях до своїх мрій.
Кількість епізодів: 7 з 12
Тривалість: 23 хв. 57 сек. / 1еп.

Перелік серій

01. Це твоя історія
02. Світ профі
03. Усмішка з подіуму
04. Молоді таланти
05. Власний стиль
06. Старші та підлеглі
07. Аура
08. Сила дизайнера
09. Суперники
10. Не можна програти
11. Обіцянка
12. Моя історія
Якість: WEBDL 1080p
Відео:
кодек: H.264
розмір кадру: 1 920 x 1 080 пікс.
бітрейт: ~3 000 кбіт/сек.
Аудіо #1:
озвучення: багатоголосе, закадрове | Сlan Kaizoku
мова: українська
кодек: AAC 2.0
бітрейт: 192 кбіт/сек
Аудіо #2:
мова: японська, оригінал
кодек: AAC 2.0
бітрейт: 256 кбіт/сек
Субтитри #1-2:
мова: українська (написи та повні субтитри)
тип: програмні (м'які)
формат: *.ass-Переклад: Аманоґава (Серафікус, Червона Дзюбка, PriFak)
Озвучення: RedMind, Nika Nade, Kora та Марічка
Розподіл ролей: Кульбабка
Робота зі звуком: RedMind
Постер: Пан Олександр

Скріншоти

Джерело озвучення: Clan Kaizoku
Особиста оцінка: 10 - без зайвих вагань рекомендую всім!

Anonymous

Опублікувати 15-Чер-2022 21:20

[Цитувати]

Напівкровна принцеса демонів (сезон 2; серії 01-15 з 24) / Hanyou no Yashahime: Sengoku Otogizoushi - Ni no Shoud (2021) WEBDL 720p Ukr/Jap | Sub Ukr Жанр: бойовик, історія, комедія, надприродне, пригоди, фентезі
Країна: Японія

0 (8 голосів)
Кінокомпанія: Sunrise
Режисер: Сато Теруо
Ролі озвучують: Мацумото Сара, Тодокоро Азуса, Комацу Мікако, Урао Такехіро та ін.
Сюжет:Напівкровна дівчина-йокай Това? знайшовши свою сестру-близнючку? повертається в епоху Сенґоку, щоб відновити спогади сестри. Вони дізнаються, що їхні батьки - це великий йокай Сешшьомару і людська дівчинка Рін. Але там на них почали полювати приспішники іншого великого йокая Кірінмару, і в результаті бою із самим Кірінмару одна із близнючок помирає. Залишається останній вихід врятувати її - скористатися мечем Тенсейґою, який повертає до життя. Але біда в тому, що меч поламаний. Тож напівкровній принцесі доведеться докласти максимум зусиль, аби з цього щось вийшло. Тривалість: 1 серія: 24 хв (цілком серій: 24)

Перелік серій

01. Використання Тенсейґи
02. Демонічний дух моря
03. Прокляття срібної лусочки
04. Бар'єр гори Мусубі
05. Дівчинка на ім'я Ріон
06. Винищувач йокаїв Хісуї
07. Прохання Такечійо
08. Міні-галактика Нанахоші
09. Гість Майонака
10. Битва у ніч нового місяця (частина 1)
11. Битва у ніч нового місяця (частина 2)
12. Місце, якому (не) належить Това
13. Бажання Зеро
14. Світанковий Кірінмару
15. Мороха знову з родиною
16.
17.
18.
19.
20.
21.
22.
23.
24.
Якість: WEBDL
Відео:
кодек: x264
розмір кадру: 1280x720
бітрейт: 4000 кб/с
Аудіо-1:
мова: українська
переклад: двоголосий закадровий
кодек: AAC 2.0
бітрейт: 256 кб/с
Аудіо-2:
мова: японська
переклад: оригінал
кодек: AAC 2.0
бітрейт: 256 кб/с
Субтитри:
мова: українська
тип: програмні (м'які)
формат: .ass

MediaInfo

General
Unique ID : 79780601285969985730821073415320591120 (0x3C052F5597A9852E6A0A1B29A07B5B10)
Complete name : V:\complete\ongoing\Hanyou no Yashahime - Sengoku Otogizoushi (season 2) [WEBDL 720p]\Hanyou no Yashahime - Sengoku Otogizoushi - s02e01 (WEBDL x264 720 AAC) Ukr DVO SUB.mkv
Format : Matroska
Format version : Version 4
File size : 758 MiB
Duration : 24 min 11 s
Overall bit rate : 4 383 kb/s
Encoded date : UTC 2021-10-05 13:40:26
Writing application : mkvmerge v45.0.0 ('Heaven in Pennies') 64-bit
Writing library : libebml v1.3.10 + libmatroska v1.5.2
Cover : Yes
Attachments : arial.ttf / KABELCTT-MEDIUM - KABELCTT MEDIUM - REGULAR_1.TTF / POLOBRUSHMF - POLO BRUSH MF - REGULAR_1.TTF / STANISLAVI4US2 - STANISLAVI4US - STANISLAVI4US 2.TTF / timesbd.ttf / V_CCJEFFCAMPBELL.TTF / v_CCPulp_Fiction.ttf / cover.jpg
Video
ID : 1
Format : AVC
Format/Info : Advanced Video Codec
Format profile :
Format settings : CABAC / 6 Ref Frames
Format settings, CABAC : Yes
Format settings, Reference : 6 frames
Codec ID : V_MPEG4/ISO/AVC
Duration : 24 min 9 s
Bit rate : 4 000 kb/s
Width : 1 280 pixels
Height : 720 pixels
Display aspect ratio : 16:9
Frame rate mode : Constant
Frame rate : 23.976 (24000/1001) FPS
Color space : YUV
Chroma subsampling : 4:2:0
Bit depth : 8 bits
Scan type : Progressive
Bits/(Pixel*Frame) : 0.181
Stream size : 689 MiB (91%)
Title : 01
Writing library : x264 core 142
Encoding settings : cabac=1 / ref=6 / deblock=1:1:1 / analyse=0x3:0x113 / me=umh / subme=8 / psy=1 / psy_rd=0.40:0.00 / mixed_ref=1 / me_range=16 / chroma_me=1 / trellis=1 / 8x8dct=1 / cqm=0 / deadzone=21,11 / fast_pskip=1 / chroma_qp_offset=-2 / threads=10 / lookahead_threads=1 / sliced_threads=0 / nr=0 / decimate=1 / interlaced=0 / bluray_compat=0 / constrained_intra=0 / bframes=0 / weightp=2 / keyint=96 / keyint_min=48 / scenecut=40 / intra_refresh=0 / rc_lookahead=48 / rc=2pass / mbtree=1 / bitrate=4000 / ratetol=1.0 / qcomp=0.60 / qpmin=0 / qpmax=69 / qpstep=4 / cplxblur=20.0 / qblur=0.5 / vbv_maxrate=6000 / vbv_bufsize=9000 / nal_hrd=none / filler=0 / ip_ratio=1.40 / aq=1:0.60
Language : Japanese
Default : Yes
Forced : Yes
Audio #1
ID : 2
Format : AAC LC
Format/Info : Advanced Audio Codec Low Complexity
Codec ID : A_AAC-2
Duration : 24 min 11 s
Bit rate : 255 kb/s
Channel(s) : 2 channels
Channel layout : L R
Sampling rate : 48.0 kHz
Frame rate : 46.875 FPS (1024 SPF)
Compression mode : Lossy
Stream size : 44.2 MiB (6%)
Title : DVO [Gwean & Maslinka]
Language : Ukrainian
Default : Yes
Forced : Yes
Audio #2
ID : 3
Format : AAC LC
Format/Info : Advanced Audio Codec Low Complexity
Codec ID : A_AAC-2
Duration : 24 min 9 s
Bit rate : 128 kb/s
Channel(s) : 2 channels
Channel layout : L R
Sampling rate : 44.1 kHz
Frame rate : 43.066 FPS (1024 SPF)
Compression mode : Lossy
Stream size : 22.1 MiB (3%)
Title : оригінальна доріжка
Language : Japanese
Default : No
Forced : No
Text #1
ID : 4
Format : ASS
Codec ID : S_TEXT/ASS
Codec ID/Info : Advanced Sub Station Alpha
Duration : 23 min 47 s
Bit rate : 10 b/s
Count of elements : 17
Compression mode : Lossless
Stream size : 1.91 KiB (0%)
Title : написи [bills_spirit]
Language : Ukrainian
Default : Yes
Forced : Yes
Text #2
ID : 5
Format : ASS
Codec ID : S_TEXT/ASS
Codec ID/Info : Advanced Sub Station Alpha
Duration : 23 min 58 s
Bit rate : 118 b/s
Count of elements : 278
Compression mode : Lossless
Stream size : 20.8 KiB (0%)
Title : повні [bills_spirit]
Language : Ukrainian
Default : No
Forced : No

Скріншоти





Озвучення: Gwean & Maslinka
Переклад: bills_spirit
Постер: bills_spirit

Anonymous

Опублікувати 15-Чер-2022 21:20

[Цитувати]

Галактичний загін Величного принца (серії 01-14 з 24) / Ginga Kikoutai Majestic Prince (2013) BDRip 1080p Жанр: меха, сейнен, космоопера
Країна: Японія

4.98 (979 голосів)
Кінокомпанія: Doga Kobo, Orange
Режисер: Мотонаґа Кейтаро
Ролі озвучують: Хірокі Айба, Шінтаро Асанума, Йоко Хікаса, Юка Іґучі та ін
Сюжет:Наприкінці 21 століття люди почали заселяти космос. Для того, щоб адаптуватися до його умов і воювати проти інопланетних загарбників на Юпітері, були створені діти, модифіковані на генетичному рівні, яких стали називати «Принцами» і яких виховували і тренували для пілотування озброєних роботів ПВББО (Передові Високорівневі Багатоцільові Бойові Одиниці). Це історія про команду «Кролики» – п’ятірку юних бійців-Принців.Тривалість: 1 серія: 24 хв (цілком серій: 24)

Перелік серій

01. Бойовий виліт
02. Народження героїв
03. Несподівана атака
04. Поразка
05. Операція: Проникнення на астероїдну базу
06. Випуск
07. Бастіон пристрасті
08. Битва біля Церери
09. Викриття
10. Мисливець і здобич
11. Операція: Арес
12. Секретна місія
13. Самотній ас
14. Тінь ПВББО
15.
16.
17.
18.
19.
20.
21.
22.
23.
24.
Якість: BDRip
Відео:
кодек: H.265 (HEVC) 10bit
розмір кадру: 1920x1080
бітрейт: 5 065 кб/с-Увага! Перед завантаженням переконайтесь, що ваш пристрій відтворення (та/або ПЗ) підтримує H.265 (HEVC)-Аудіо:
мова: українська
переклад: двоголосий закадровий
кодек: AAC 2.0
бітрейт: 256 кб/с
Субтитри:
мова: українська
тип: програмні (м'які)
формат: .ass

MediaInfo

General
Unique ID : 257055309180480011647212118603182332159 (0xC1630D3E458D5FDB237CA2A1C78B58FF)
Complete name : V:\complete\ongoing\Majestic Prince [BDRip 1080p]\Majestic Prince - 01 (BDRip 1080p HEVC AAC) Ukr DVO.mkv
Format : Matroska
Format version : Version 4
File size : 1.07 GiB
Duration : 28 min 52 s
Overall bit rate : 5 323 kb/s
Encoded date : UTC 2022-02-04 17:38:00
Writing application : mkvmerge v45.0.0 ('Heaven in Pennies') 64-bit
Writing library : libebml v1.3.10 + libmatroska v1.5.2
Cover : Yes
Attachments : arial.ttf / arialbd.ttf / calibri.ttf / cover.jpg
Video
ID : 1
Format : HEVC
Format/Info : High Efficiency Video Coding
Format profile : Main @High
Codec ID : V_MPEGH/ISO/HEVC
Duration : 28 min 51 s
Bit rate : 5 065 kb/s
Width : 1 920 pixels
Height : 1 080 pixels
Display aspect ratio : 16:9
Frame rate mode : Constant
Frame rate : 23.976 (24000/1001) FPS
Color space : YUV
Chroma subsampling : 4:2:0
Bit depth : 10 bits
Bits/(Pixel*Frame) : 0.102
Stream size : 1.02 GiB (95%)
Title : 01
Writing library : x265 3.3+2-dd2464df2f40:[Linux][GCC 8.3.0][64 bit] 10bit
Encoding settings : cpuid=1111039 / frame-threads=5 / wpp / no-pmode / no-pme / no-psnr / no-ssim / log-level=2 / input-csp=1 / input-res=1920x1080 / interlace=0 / total-frames=0 / level-idc=50 / high-tier=1 / uhd-bd=0 / ref=6 / no-allow-non-conformance / no-repeat-headers / annexb / no-aud / no-hrd / info / hash=0 / no-temporal-layers / open-gop / min-keyint=23 / keyint=250 / gop-lookahead=0 / bframes=16 / b-adapt=2 / b-pyramid / bframe-bias=0 / rc-lookahead=240 / lookahead-slices=4 / scenecut=40 / hist-scenecut=0 / radl=0 / no-splice / no-intra-refresh / ctu=64 / min-cu-size=8 / rect / no-amp / max-tu-size=32 / tu-inter-depth=1 / tu-intra-depth=1 / limit-tu=0 / rdoq-level=2 / dynamic-rd=0.00 / no-ssim-rd / signhide / no-tskip / nr-intra=0 / nr-inter=0 / no-constrained-intra / strong-intra-smoothing / max-merge=3 / limit-refs=3 / limit-modes / me=3 / subme=4 / merange=57 / temporal-mvp / no-frame-dup / no-hme / weightp / no-weightb / no-analyze-src-pics / deblock=1:1 / sao / no-sao-non-deblock / rd=4 / selective-sao=4 / no-early-skip / rskip / no-fast-intra / no-tskip-fast / no-cu-lossless / no-b-intra / no-splitrd-skip / rdpenalty=0 / psy-rd=0.80 / psy-rdoq=1.00 / no-rd-refine / no-lossless / cbqpoffs=0 / crqpoffs=0 / rc=crf / crf=15.0 / qcomp=0.60 / qpstep=4 / stats-write=0 / stats-read=0 / vbv-maxrate=100000 / vbv-bufsize=100000 / vbv-init=0.9 / crf-max=0.0 / crf-min=0.0 / ipratio=1.40 / pbratio=1.30 / aq-mode=3 / aq-strength=0.90 / cutree / zone-count=0 / no-strict-cbr / qg-size=32 / no-rc-grain / qpmax=69 / qpmin=0 / no-const-vbv / sar=1 / overscan=0 / videoformat=5 / range=0 / colorprim=2 / transfer=2 / colormatrix=2 / chromaloc=0 / display-window=0 / cll=0,0 / min-luma=0 / max-luma=1023 / log2-max-poc-lsb=8 / vui-timing-info / vui-hrd-info / slices=1 / no-opt-qp-pps / no-opt-ref-list-length-pps / no-multi-pass-opt-rps / scenecut-bias=0.05 / hist-threshold=0.01 / no-opt-cu-delta-qp / no-aq-motion / no-hdr10 / no-hdr10-opt / no-dhdr10-opt / no-idr-recovery-sei / analysis-reuse-level=0 / analysis-save-reuse-level=0 / analysis-load-reuse-level=0 / scale-factor=0 / refine-intra=0 / refine-inter=0 / refine-mv=1 / refine-ctu-distortion=0 / no-limit-sao / ctu-info=0 / no-lowpass-dct / refine-analysis-type=0 / copy-pic=1 / max-ausize-factor=1.0 / no-dynamic-refine / no-single-sei / no-hevc-aq / no-svt / no-field / qp-adaptation-range=1.00 / no-scenecut-aware-qpconformance-window-offsets / right=0 / bottom=0
Language : Japanese
Default : Yes
Forced : Yes
Color range : Limited
Audio
ID : 2
Format : AAC LC
Format/Info : Advanced Audio Codec Low Complexity
Codec ID : A_AAC-2
Duration : 28 min 52 s
Bit rate : 242 kb/s
Channel(s) : 2 channels
Channel layout : L R
Sampling rate : 48.0 kHz
Frame rate : 46.875 FPS (1024 SPF)
Compression mode : Lossy
Stream size : 49.9 MiB (5%)
Title : DVO [Gwean & Maslinka]
Language : Ukrainian
Default : Yes
Forced : Yes
Text
ID : 3
Format : ASS
Codec ID : S_TEXT/ASS
Codec ID/Info : Advanced Sub Station Alpha
Duration : 27 min 13 s
Bit rate : 5 b/s
Count of elements : 10
Compression mode : Lossless
Stream size : 1.12 KiB (0%)
Title : написи
Language : Ukrainian
Default : Yes
Forced : Yes
Menu
00:00:00.000 : en:Intro
00:02:05.000 : en:Part A
00:10:41.057 : en:Part B
00:24:50.030 : en:ED
00:27:13.048 : en:Preview
00:27:19.638 : en:Credits

Скріншоти





Озвучення: Gwean & MaslinkaЯкщо бажаєте підтримати наше озвучення, можете підписатись на наш Patreon. Деталі за посиланням нижче>>>ПОДЯКУВАТИ<<<

Anonymous

Опублікувати 15-Чер-2022 21:20

[Цитувати]

Кохання після Поневолення Світу! / Koi wa Sekai Seifuku no Ato de
MyAnimeList 7.43 (3 865 голосів)
Жанр: романтика, комедія, аніме
Країна: Японія
Період трансляції: з 08.04.2022 по ??.??.2022
Аніместудії: Project No.9
Режисер: Івата Кадзую
Ролі озвучують: Хасеґава Ікумі, Кобаяші Юуске, Хашімото Чінамі, Момоцукі Нашіко, Ічімічі Мао та ін.
Сюжет:В очах загалу Айкава Фудо та Маґахара Десумі - закляті вороги, які не мають нічого спільного. Фудо, також відомий, як "Червоне Желе," - лідер геройського загону "Желе 5", котрі борються для того, щоб запанував мир у всьому світі! А з іншої сторони, Десумі - комбатантка з лихої товариства "Ґекко", в якого на меті стоїть поневолення всього світу. Утім, попри всі свої відмінності, їхні стосунки не такі, як можуть видатися. І коли їм не потрібно вдавати з себе запеклих ворогів - вони нарешті можуть поринути в обійми забороненого кохання.
Ходити на побачення, пекти смаколики одне одному, перетинаються за будь-якої вдалої нагоди, ця пара недосвідчених закоханих усіма силами торуватимуть шлях свого незвичного кохання.
Кількість епізодів: 9 з 12
Тривалість: 23 хв. 57 сек. / 1еп.

Перелік серій

01. Кохаю тебе
02. Істина про побачення
03. Нарешті! Парк атракціонів!
04. Може скажеш мені чому?
05. Такою, як ти є
06. Позаяк ми вже на пляжі...
07. Маґахара Десумі – породжений мною монстр
08. У кожного є секрет або кілька!
09. Моя старша сестричка змінилася
10.
11.
12.
Якість: WEBDL 1080p
Відео:
кодек: H.264
розмір кадру: 1 920 x 1 080 пікс.
бітрейт: ~2 000 кбіт/сек.
Аудіо #1:
озвучення: багатоголосе, закадрове | Сlan Kaizoku
мова: українська
кодек: AAC 2.0
бітрейт: 192 кбіт/сек
Аудіо #2:
мова: японська, оригінал
кодек: AAC 2.0
бітрейт: 128 кбіт/сек
Субтитри #1-2:
мова: українська (написи та повні субтитри)
тип: програмні (м'які)
формат: *.ass-Озвучення: RedMind, Eredelka, Basilio та Anytka
Переклад: Fanat22012
Робота зі звуком: Eredelka
Постер: IT_IS_ME1987-ПІДТРИМАТИ КЛАН КАЙЗОКУ МОЖНА ТУТ-

Скріншоти

Джерело озвучення: Clan Kaizoku
Особиста оцінка: 10 - без зайвих вагань рекомендую всім!

Anonymous

Опублікувати 15-Чер-2022 21:19

[Цитувати]

Трусяшка та Панчошка разом з Паском (серії 01-04 з 13) / Panty & Stocking with Garterbelt (2010) BDRip 1080p H.265 Ukr/Jap | Sub Ukr Жанр: чорна комедія, бойовик, еччі, фентезі
Країна: Японія

6.54 (3461 голосів)
Кінокомпанія: Gainax
Режисер: Імаїші Хіроюкі
Ролі озвучують: Іші Коджі, Оґасавара Аріса, Ісе Марія, Йошіно Хіроюкі та ін
Сюжет:«Анархічні сестри» Трусяшка та Панчошка були вигнані з Раю за, м'яко кажучи, погану поведінку. Під керівництвом священника на ім'я Пасок ці ангели мають винищувати привидів і злих духів у Датен-сіті, щоб повернутися на Небеса.Тривалість: 1 серія: 24 хв (цілком серій: 13)

Перелік серій

01. Екскременти без честі та людяності / Смертельні перегони 2010
02. Бджолиний рій наводить кіпіш / Секс і Датен-сіті
03. Гризня між сестрами / Серветкова залежність
04. Дієтний синдром / Гола шкільна вечірка
05.
06.
07.
08.
09.
10.
11.
12.
13.
Якість: BDRip
Відео:
кодек: H.265 (HEVC)
розмір кадру: 1920x1080
бітрейт: 3877 кб/с-Увага! Перед завантаженням переконайтесь, що ваш пристрій відтворення (та/або ПЗ) підтримує H.265 (HEVC)-Аудіо-1:
мова: українська
переклад: багатоголосий закадровий
кодек: AC3 2.0
бітрейт: 256 кб/с
Аудіо-2:
мова: японська
переклад: оригінальна доріжка
кодек: AC3 2.0
бітрейт: 256 кб/с
Субтитри:
мова: українська
тип: програмні (м'які)
формат: .ass

MediaInfo

General
Unique ID : 315057155211703454518135625635329344919 (0xED05CD0A81AF2DD779E230B893560597)
Complete name : V:\complete\ongoing\Panty & Stocking with Garterbelt [BDRip 1080p HEVC]\Panty & Stocking with Garterbelt - 01 (WEBDL 1080p HEVC AC3) Ukr MVO SUB.mkv
Format : Matroska
Format version : Version 4
File size : 748 MiB
Duration : 23 min 42 s
Overall bit rate : 4 415 kb/s
Encoded date : UTC 2022-05-05 10:05:43
Writing application : mkvmerge v45.0.0 ('Heaven in Pennies') 64-bit
Writing library : libebml v1.3.10 + libmatroska v1.5.2
Cover : Yes
Attachments : arial.ttf / calibri.ttf / cambriab.ttf / comic.ttf / comicbd.ttf / cover.jpg / Cream_and_sugar.ttf
Video
ID : 1
Format : HEVC
Format/Info : High Efficiency Video Coding
Format profile : Main @Main
Codec ID : V_MPEGH/ISO/HEVC
Duration : 23 min 42 s
Bit rate : 3 877 kb/s
Width : 1 920 pixels
Height : 1 080 pixels
Display aspect ratio : 16:9
Frame rate mode : Constant
Frame rate : 23.976 (24000/1001) FPS
Color space : YUV
Chroma subsampling : 4:2:0
Bit depth : 10 bits
Bits/(Pixel*Frame) : 0.078
Stream size : 657 MiB (88%)
Title : x265/HEVC Video (10bit)
Writing library : x265 3.3+21-6bb2d88029c2:[Windows][MSVC 1925][64 bit] 10bit
Encoding settings : cpuid=1111039 / frame-threads=5 / numa-pools=40 / wpp / no-pmode / no-pme / no-psnr / no-ssim / log-level=2 / input-csp=1 / input-res=1920x1080 / interlace=0 / total-frames=34096 / level-idc=0 / high-tier=1 / uhd-bd=0 / ref=6 / no-allow-non-conformance / no-repeat-headers / annexb / no-aud / no-hrd / info / hash=0 / no-temporal-layers / open-gop / min-keyint=23 / keyint=250 / gop-lookahead=0 / bframes=8 / b-adapt=2 / b-pyramid / bframe-bias=0 / rc-lookahead=60 / lookahead-slices=0 / scenecut=40 / hist-scenecut=0 / radl=0 / no-splice / no-intra-refresh / ctu=64 / min-cu-size=8 / rect / amp / max-tu-size=32 / tu-inter-depth=3 / tu-intra-depth=3 / limit-tu=0 / rdoq-level=2 / dynamic-rd=0.00 / no-ssim-rd / signhide / no-tskip / nr-intra=0 / nr-inter=0 / no-constrained-intra / strong-intra-smoothing / max-merge=5 / limit-refs=0 / no-limit-modes / me=3 / subme=7 / merange=57 / temporal-mvp / no-frame-dup / no-hme / weightp / weightb / no-analyze-src-pics / deblock=0:0 / sao / no-sao-non-deblock / rd=6 / selective-sao=4 / no-early-skip / rskip / no-fast-intra / no-tskip-fast / no-cu-lossless / b-intra / no-splitrd-skip / rdpenalty=0 / psy-rd=2.00 / psy-rdoq=1.00 / no-rd-refine / no-lossless / cbqpoffs=0 / crqpoffs=0 / rc=crf / crf=17.0 / qcomp=0.75 / qpstep=4 / stats-write=0 / stats-read=0 / ipratio=1.40 / pbratio=1.30 / aq-mode=1 / aq-strength=1.00 / cutree / zone-count=0 / no-strict-cbr / qg-size=32 / no-rc-grain / qpmax=69 / qpmin=0 / no-const-vbv / sar=1 / overscan=0 / videoformat=5 / range=0 / colorprim=2 / transfer=2 / colormatrix=2 / chromaloc=0 / display-window=0 / cll=0,0 / min-luma=0 / max-luma=1023 / log2-max-poc-lsb=8 / vui-timing-info / vui-hrd-info / slices=1 / no-opt-qp-pps / no-opt-ref-list-length-pps / no-multi-pass-opt-rps / scenecut-bias=0.05 / hist-threshold=0.01 / no-opt-cu-delta-qp / no-aq-motion / no-hdr10 / no-hdr10-opt / no-dhdr10-opt / no-idr-recovery-sei / analysis-reuse-level=0 / analysis-save-reuse-level=0 / analysis-load-reuse-level=0 / scale-factor=0 / refine-intra=0 / refine-inter=0 / refine-mv=1 / refine-ctu-distortion=0 / no-limit-sao / ctu-info=0 / no-lowpass-dct / refine-analysis-type=0 / copy-pic=1 / max-ausize-factor=1.0 / no-dynamic-refine / no-single-sei / no-hevc-aq / no-svt / no-field / qp-adaptation-range=1.00 / no-scenecut-aware-qpconformance-window-offsets / right=0 / bottom=0 / decoder-max-rate=0
Language : Japanese
Default : Yes
Forced : Yes
Audio #1
ID : 2
Format : AC-3
Format/Info : Audio Coding 3
Commercial name : Dolby Digital
Codec ID : A_AC3
Duration : 23 min 42 s
Bit rate mode : Constant
Bit rate : 256 kb/s
Channel(s) : 2 channels
Channel layout : L R
Sampling rate : 48.0 kHz
Frame rate : 31.250 FPS (1536 SPF)
Compression mode : Lossy
Stream size : 43.4 MiB (6%)
Title : MVO [Gwean & Maslinka, Lem0nka]
Language : Ukrainian
Service kind : Complete Main
Default : Yes
Forced : Yes
Audio #2
ID : 3
Format : AC-3
Format/Info : Audio Coding 3
Commercial name : Dolby Digital
Format settings : Dolby Surround
Codec ID : A_AC3
Duration : 23 min 42 s
Bit rate mode : Constant
Bit rate : 256 kb/s
Channel(s) : 2 channels
Channel layout : L R
Sampling rate : 48.0 kHz
Frame rate : 31.250 FPS (1536 SPF)
Compression mode : Lossy
Stream size : 43.4 MiB (6%)
Title : оригінальна доріжка
Language : Japanese
Service kind : Complete Main
Default : No
Forced : No
Text #1
ID : 4
Format : ASS
Codec ID : S_TEXT/ASS
Codec ID/Info : Advanced Sub Station Alpha
Duration : 22 min 32 s
Bit rate : 19 b/s
Count of elements : 25
Compression mode : Lossless
Stream size : 3.20 KiB (0%)
Title : написи [Maslinka]
Language : Ukrainian
Default : Yes
Forced : Yes
Text #2
ID : 5
Format : ASS
Codec ID : S_TEXT/ASS
Codec ID/Info : Advanced Sub Station Alpha
Duration : 22 min 32 s
Bit rate : 138 b/s
Count of elements : 297
Compression mode : Lossless
Stream size : 22.9 KiB (0%)
Title : повні [Maslinka]
Language : Ukrainian
Default : No
Forced : No
Menu
00:00:00.000 : en:Opening
00:00:32.032 : en:Part A
00:12:09.061 : en:Part B
00:22:42.069 : en:Ending

Скріншоти





Озвучення: Gwean, Maslinka, Lem0nka
Переклад: MaslinkaПідтримайте наше озвучення підпискою на Patreon. Деталі за посиланням нижче>>>ПОДЯКУВАТИ<<<

Anonymous

Опублікувати 15-Чер-2022 21:19

[Цитувати]

Мобільна броня Ґандам: Доля покоління (серії 01-37 з 50) / Mobile Suit Gundam SEED Destiny (2004) BDRip 1080p Жанр: фантастика, меха, пригоди, драма, шьонен
Країна: Японія

6.03 (4412 голосів)
Кінокомпанія: Sunrise
Режисер: Фукудо Міцуо
Ролі озвучують: Ішіда Акіра, Хоші Соучіро, Сузумура Кенічі, Окіаю Рьотару та ін
Сюжет:У 71-му році космічної ери у воєнному конфлікті постраждала нейтральна країна. Також в результаті війни загинула сім’я Шіна Аски. Хлопець поклявся присвятити життя помсті Натуралам Землі, винних у смерті його родини. Шін приєднується до збройних сил ЗАФТ, іде по кар’єрних сходинах і зрештою отримує доступ до мобільної броні Імпульсу.Тривалість: 1 серія: 24 хв (цілком серій: 50)

Перелік серій

01. Сердитий погляд
02. Ті, хто закликають до війни
03. Попереджувальні постріли
04. Бій серед зоряного пилу
05. Невиліковні рани
06. Кінець світу
07. Територія хаосу
08. Перехрестя
09. Показуючи ікла
10. Прокляття батька
11. Обраний шлях
12. Кров у воді
13. Відроджені крила
14. Політ у завтрашній день
15. Повернення на поле бою
16. Бій в Індійському океані
17. Життя солдата
18. Атака на Лоенґрін
19. Прихована правда
20. Минуле
21. Блукаючий погляд
22. Меч блакитного неба
23. Тіні війни
24. Різні точки зору
25. Обитель гріха
26. Обіцянка
27. Незбагненні почуття
28. Уцілілі й полеглі
29. Долі
30. Скороминуча мрія
31. Нескінченна ніч
32. Стелла
33. Усесвітнє викриття
34. Жахіття
35. Напередодні хаосу
36. Аслан тікає
37. Грім у пітьмі
38.
39.
40.
41.
42.
43.
44.
45.
46.
47.
48.
49.
50.
Якість: BDRip
Відео:
кодек: x264
розмір кадру: 1920x1080
бітрейт: 4151 кб/с
Аудіо:
мова: українська
переклад: двоголосий закадровий
кодек: AAC 2.0
бітрейт: 256 кб/с
Субтитри (тільки написи):
мова: українська
тип: програмні (м'які)
формат: .ass

Скріншоти





Озвучення: Gwean & MaslinkaЯкщо бажаєте підтримати наше озвучення, можете підписатись на наш Patreon. Деталі за посиланням нижче>>>ПОДЯКУВАТИ<<<

Anonymous

Опублікувати 15-Чер-2022 21:19

[Цитувати]

Сім'я шпигуна (серії 01-10 з 25) / Spy x Family (2022) WEBDL 1080p H.265 Жанр: комедія, бойовик, шьонен
Країна: Японія

0 (0 голосів)
Кінокомпанія: Wit Studio, CloverWorks
Режисер: Казухіро Фурухаші
Ролі озвучують: Танезакі Ацумі, Хаямі Саорі, Еґучі Такуя, Йошіно Хіроюкі та ін
Сюжет:Агент «Морок» береться за будь-яке завдання, якщо його виконання принесе мир. Морок, головний шпигун Весталіії, невтомно працює, щоб не дати екстремістам розпалити війну з сусідньою країною Останією. Він отримує завдання розслідувати діяльність останського політика Донована Дезмонда, проникнувши в школу його сина: елітну академію Едем. Таким чином, у агента найскладніше завдання за всю кар'єру: одружитися, завести дитину та вдавати дружню сім'ю.Тривалість: 1 серія: 24 хв (цілком серій: 25)

Перелік серій

01. Операція «Сич»
02. Завести дружину
03. Підготовка до співбесіди
04. Співбесіда до елітної школи
05. Зарахування чи відмова?
06. Місія «Найліпші друзі»
07. Ціль: молодший син
08. Операція під прикриттям проти таємної поліції
09. Покажіть своє кохання!
10. Операція «Вибивали»
11.
12.
13.
14.
15.
16.
17.
18.
19.
20.
21.
22.
23.
24.
Якість: WEBDL
Відео:
кодек: H.265 (HEVC)
розмір кадру: 1920x1080
бітрейт: 3504 кб/с-Увага! Перед завантаженням переконайтесь, що ваш пристрій відтворення (та/або ПЗ) підтримує H.265 (HEVC)-Аудіо:
мова: українська
переклад: двоголосий закадровий
кодек: AAC 2.0
бітрейт: 256 кб/с
Субтитри (тільки написи):
мова: українська
тип: програмні (м'які)
формат: .ass

MediaInfo

General
Unique ID : 5894237213192468050753462437563385163 (0x46F3054DB7D6580D694E1E90498C54B)
Complete name : V:\complete\ongoing\SPY×FAMILY [WEBDL 1080p HEVC]\SPY×FAMILY - 01 (WEBDL 1080p x265 AAC) Ukr DVO.mkv
Format : Matroska
Format version : Version 4
File size : 654 MiB
Duration : 24 min 11 s
Overall bit rate : 3 780 kb/s
Encoded date : UTC 2022-04-09 19:25:21
Writing application : mkvmerge v45.0.0 ('Heaven in Pennies') 64-bit
Writing library : libebml v1.3.10 + libmatroska v1.5.2
Cover : Yes
Attachments : arial.ttf / arialbd.ttf / calibri.ttf / trebucbd.ttf / cover.jpg
Video
ID : 1
Format : HEVC
Format/Info : High Efficiency Video Coding
Format profile : @Main
Codec ID : V_MPEGH/ISO/HEVC
Duration : 24 min 9 s
Bit rate : 3 504 kb/s
Width : 1 920 pixels
Height : 1 080 pixels
Display aspect ratio : 16:9
Frame rate mode : Constant
Frame rate : 23.976 (24000/1001) FPS
Original frame rate : 23.976 (23976/1000) FPS
Color space : YUV
Chroma subsampling : 4:2:0
Bit depth : 8 bits
Bits/(Pixel*Frame) : 0.070
Stream size : 606 MiB (93%)
Title : 01
Language : Japanese
Default : Yes
Forced : Yes
Color range : Limited
Color primaries : BT.709
Transfer characteristics : BT.709
Matrix coefficients : BT.709
Audio
ID : 2
Format : AAC LC
Format/Info : Advanced Audio Codec Low Complexity
Codec ID : A_AAC-2
Duration : 24 min 11 s
Bit rate : 255 kb/s
Channel(s) : 2 channels
Channel layout : L R
Sampling rate : 48.0 kHz
Frame rate : 46.875 FPS (1024 SPF)
Compression mode : Lossy
Stream size : 44.1 MiB (7%)
Title : DVO [Gwean & Maslinka]
Language : Ukrainian
Default : Yes
Forced : Yes
Text
ID : 3
Format : ASS
Codec ID : S_TEXT/ASS
Codec ID/Info : Advanced Sub Station Alpha
Duration : 19 min 57 s
Bit rate : 8 b/s
Count of elements : 9
Compression mode : Lossless
Stream size : 1.21 KiB (0%)
Title : написи
Language : Ukrainian
Default : Yes
Forced : Yes

Скріншоти





https://www.youtube.com/embed/VZOmFbNn-M0Озвучення: Gwean & Maslinka
Постер: ЗіґЗаґ95Підтримайте наше озвучення підпискою на Patreon. Деталі за посиланням нижче>>>ПОДЯКУВАТИ<<<

Anonymous

Опублікувати 15-Чер-2022 21:19

[Цитувати]

Котаро, що живе сам (Сезон 1) / Kotarou wa Hitorigurashi / Kotaro Lives Alone (Season 1) (2022) WEBDL 1080p H.265 Ukr/Jap | Sub Ukr
MyAnimeList 8.37 (34 246 голосів)
Жанр: комедія, повсякденщина, аніме
Країна: Японія
Аніместудії: LIDENFILMS
Режисер: Макіно Томое
Ролі озвучують: Куґімія Ріе, Масуда Тошікі, Хаямі Саорі, Савабе Джюнічі, Савашіро Чіхару та ін.
Сюжет:Самотній малюк оселяється в порожній квартирі й заводить дружбу із сусідом — зубожілим художником, що малює манґу.
Кількість епізодів: 10
Тривалість: ~26 хв. 43 сек. / 1еп.

Перелік серій

01. Я - Котаро / Режим бою | Староможний манґака / Брехня чи правда?
02. Що такого особливого в Тоносамі? / Фінальний епізод Тоносами | Халепа з лазнею / Мішки під очима | Усі одного сонячного дня / Натхнення для магазинних бенто
03. Заради сім'ї / Причина, щоб вийти з дому | Фобія фотографій / Дарунок для тебе | Стати стильний / Вибір
04. Гурман?! / Котаро грає у вибивали | Що таке день народження? / Гайда втечемо | Напитися і танцювати / Літній фестиваль
05. Улюблені серветки / Запросити всіх | Актор Котаро / Ніч зорепаду | Але ж сьогодні неділя... / Той живіт?!
06. Хто цей дивний новий сусід? | Мені не потрібна допомога / Я хочу стати сильним | Голос / Детектив
07. Чому ти граєш зі мною? / Ти захворів? | Огляд квартири / Ти теж такий?! | Коли ти думаєш про ближнього
08. Наглядач / Відвідувач | Новоприбулий / Сумнівний обід | Колекція / Футбольний матч
09. Особливий час / Кличте профі | Тим, кому завжди раді / Спогади про подушку | Я вірю в тебе / Дещо не змінюється
10. Про Шіна | ДІН-ДОН / Багацько газет | Що я хочу сказати тобі?
Якість: WEBDL 1080p
Відео:
кодек: H.265 (можливі проблеми з відтворення на деяких пристроях)
розмір кадру: 1 920 x 1080 пікс.
бітрейт: ~1 133 кбіт/сек.
бітність: 10 біт
Аудіо #1:
озвучення: багатоголосе, закадрове
мова: українська
кодек: AAC 2.0
бітрейт: 192 кбіт/сек
Аудіо #2:
мова: японська, оригінал
кодек: AAC 5.1
бітрейт: 192 кбіт/сек
Субтитри:
мова: українська (написи та повні субтитри)
тип: програмні (м'які)
формат: ass/srt-Переклад:  Марина Хижнякова
Оформлення написів: Fanat22012
Озвучення: Bitari, Draakull та Popmortem
Робота зі звуком: Bitari
Постер: Bitari

Скріншоти

Особиста оцінка: 10 - без зайвих вагань рекомендую всім!

Anonymous

Опублікувати 15-Чер-2022 21:19

[Цитувати]

Як квітнуть квіти / Hanasaku Iroha
MyAnimeList 7.92 (120 776 голосів)
7.87 (3 773 голосів)
Жанр: комедія, драма, повсякденність, аніме
Країна: Японія
Період трансляції: з 03.04.2011 по 25.09.2011
Аніместудії: P.A. Works
Режисер: Андо Масахіро
Ролі озвучують: Іто Канае, Тойосакі Акі, ОміґFва Чіакі, Хонда Такако, Томацу Харука, Маджіма Джюнджі та ін.
Сюжет:За шістнадцять років життя матір навчила Мацумае Охану лишень недовірі до людей і самостійності. Але Охана відчуває, що світ не такий. І от їй випадає нагода відшукати себе, коли матір тікає зі своїм хлопцем і відправляє її до бабусі. Тут вона сподівалася на теплоту і любов. Втім нова реальність виявилася інакшою. Охана вирішує не здаватися і починає розквітати у нову себе.
Кількість епізодів: 5 з 26
Тривалість: 23 хв. 57 сек. / 1еп.

Перелік серій

01. 16 років, весна, досі бутон
02. Помста має подачу
03. Балют
04. Рапсодія сірої чаплі
05. Заплакана туга за кухарем
06. Nothing Venture Nothing Win
07. На фронті Кіссуй все спокійно
08. Біжи
09.
10.
11.
12.
Якість: BDRip 1080p
Відео:
кодек: H.264
розмір кадру: 1 920 x 1 080 пікс.
бітрейт: ~2 132 кбіт/сек.
бітність: 10 біт (можливі проблеми з відтворення на деяких пристроях)
Аудіо #1:
озвучення: багатоголосе, закадрове | Сlan Kaizoku
мова: українська
кодек: AAC 2.0
бітрейт: 256 кбіт/сек
Аудіо #2:
мова: японська, оригінал
кодек: AAC 2.0
бітрейт: 256 кбіт/сек
Субтитри #1-2:
мова: українська (написи та повні субтитри)
тип: програмні (м'які)
формат: *.ass-Переклад: Gedet
Озвучення: Lil_Che, Samuel, Юллі Дзиґа та Eredelka
Робота зі звуком: Eredelka
Постер: Д.-Якщо маєте бажання подякувати за нашу роботу — переходьте за посиланням.

Скріншоти

Джерело озвучення: Clan Kaizoku
Особиста оцінка: 10 - без зайвих вагань рекомендую всім!
 

Поточний час: 04-Лип 20:32

Часовий пояс: UTC ± 0