Пошук знайшов 166 збігів

Автор Повідомлення

Anonymous

Опублікувати 15-Чер-2022 17:03

[Цитувати]

Сага (Сезон 1) (2020) WEB-DL 1080p Ukr | sub Eng Жанр: драма, історичний
Країна: Україна

Кінокомпанія: Три-я-да Продакшн
Режисер: Дмитро Лактіонов
Актори: Ада Роговцева, Наталка Денисенко, Дарія Плахтій, Олександра Люта, Лілія Цвелікова, Ігор Пазич, Григорій Бакланов, Яков Кучеревський, Микола Боклан, Аліна Коваленко, Юрій Дяк та ін.
Сюжет:Історія життя української родини Козаків. Вона починається 1908 року і триває до сьогодні. Різні покоління однієї родини стають свідками та учасниками всіх найважливіших, трагічних, радісних і знакових подій останнього сторіччя в Україні. Волею долі члени однієї родини інколи опиняються по різні боки барикад.Тривалість: 1 серія: ~ 50 хв. (цілком серій: 12)

Перелік серій

01-12
Якість: WEB-DL [AMZN]
Відео:
кодек: H.264
розмір кадру: 1920 х 1080
бітрейт: 9505 кб/с
Аудіо:
мова: українська
переклад: оригінал
кодек: E-AC3 2.0
бітрейт: 224 кб/с
Субтитри:
мова: англійська
тип: програмні (м'які)
формат: *.srtДжерело:
Подяка за відео пану PuMa.ua

Anonymous

Опублікувати 15-Чер-2022 17:03

[Цитувати]

Слід (Сезон 1, серії 204-217) (2022) WEBRip-AVC Жанр: детектив
Країна: Україна
Кінокомпанія: СТБ, Space Production
Режисер: Олександра Гончарова
Актори: Тетяна Кравченко , Ігор Волков , Богдан Рубан , Оксана Борбат та інші.
Сюжет:За сюжетом структура «ОСА» («Особлива слідча агенція») об'єднує унікальних спеціалістів різних сфер: патологоанатома, баліста, аналітика, оперативників, лаборантів, детективів, айтішників та ін. Під керівництвом голови організації Ольги Сергіївни Косач (колеги називають її «оса») вони проводять весь спектр важких експертиз, досліджень та надають допомогу поліції у розкритті найважчих злочинів.Тривалість: 1 серія: ~ 44 хв. (цілком серій: 14 з ???)

Перелік серій

Слід 204 серія: заповітна мрія
Слід 205 серія: покарання зрадника
Слід 206 серія: такі різні брати
Слід 207 серія: дійти до краю
Слід 208 серія: око за око
Слід 209 серія: Печерська різня
Слід 210 серія: секрет фірми
Слід 211 серія: голос с того світу
Слід 212 серія: лігво звіра
Слід 213 серія: ритуальні послуги
Слід 214 серія: таємниця з кількома невідомими
Слід 215 серія: секрет Казанови
Слід 216 серія: гігабайти таємниць
Слід 217 серія: зниклі безвісти
Якість: WEBRip-AVC
Відео:
кодек: H.264
розмір кадру: 854 х 480
бітрейт: ~ 1200 кб/с
Аудіо:
мова: українська в деяких серіях присутня російська
озвучення: оригінал
кодек: AAC 2.0
бітрейт: 128 кб/с

MediaInfo

Формат : MPEG-4
Профіль формату : Base Media
Ідентифікатор кодеку : isom (isom/iso2/avc1/mp41)
Розмір файлу : 401 МіБ
Тривалість : 42 хв. 7 сек.
Загальний бітрейт : 1 330 Кбіт/сек
Відео
Ідентифікатор : 1
Формат : AVC
Формат/Відомості : Advanced Video Codec
Профіль формату :
Налаштування формату : CABAC / 4 Ref Frames
Налаштування формату, CABAC : Так
Налаштування формату, RefFrames : 4 кадр(-и,-ів)
Ідентифікатор кодеку : avc1
Ідентифікатор кодеку/Відомості : Advanced Video Coding
Тривалість : 42 хв. 7 сек.
Бітрейт : 1 196 Кбіт/сек
Ширина кадру : 854 пікс.
Висота кадру : 480 пікс.
Співвідношення сторін екрану : 16:9
Оригінальне співвідношення сторін екрану : 16:9
Режим частоти кадрів : Постійний
Частота кадрів : 25.000 кадр/сек
Простір кольору : YUV
Субдискретизація хроматичності : 4:2:0
Бітова глибина : 8 біт
Тип сканування : Прогресивний
Біт/(Пікселі*Кадри) : 0.117
Розмір потоку : 360 МіБ (90%)
Бібліотека кодування : x264 core 160
Налаштування бібліот. кодування : cabac=1 / ref=3 / deblock=1:0:0 / analyse=0x3:0x113 / me=hex / subme=7 / psy=1 / psy_rd=1.00:0.00 / mixed_ref=1 / me_range=16 / chroma_me=1 / trellis=1 / 8x8dct=1 / cqm=0 / deadzone=21,11 / fast_pskip=1 / chroma_qp_offset=-2 / threads=15 / lookahead_threads=2 / sliced_threads=0 / nr=0 / decimate=1 / interlaced=0 / bluray_compat=0 / constrained_intra=0 / bframes=3 / b_pyramid=2 / b_adapt=1 / b_bias=0 / direct=1 / weightb=1 / open_gop=0 / weightp=2 / keyint=250 / keyint_min=25 / scenecut=40 / intra_refresh=0 / rc_lookahead=40 / rc=crf / mbtree=1 / crf=20.0 / qcomp=0.60 / qpmin=5 / qpmax=51 / qpstep=4 / ip_ratio=1.41 / aq=1:1.00
Codec configuration box : avcC
Аудіо
Ідентифікатор : 2
Формат : AAC LC
Формат/Відомості : Advanced Audio Codec Low Complexity
Ідентифікатор кодеку : mp4a-40-2
Тривалість : 42 хв. 7 сек.
Режим розрахунку бітрейта : Постійний (CBR)
Бітрейт : 128 Кбіт/сек
Кількість каналів : 2 канал(-и,-ів)
Channel layout : L R
Частота дискретизації : 48.0 кГц
Частота кадрів : 46.875 кадр/сек (1024 SPF)
Тип стиснення : Із втратами
Розмір потоку : 38.6 МіБ (10%)
Default : Так
Alternate group : 1

Скріншоти



Джерело:
Особиста оцінка: 0 - не дивився

Anonymous

Опублікувати 15-Чер-2022 17:03

[Цитувати]

Метелики (Сезон 1) / Inseparable (Season 1) (2013) HDTVRip 1080p Жанр: екшн, драма, романтичний, трилер
Країна: Україна

Кіностудія / кінокомпанія: Film.ua
Режисер: Віталій Воробйов
Актори: Марія Поєзжаєва, Юрій Борисов, Андрій Казаков, Юлія Рутберг, Юрій Назаров, Євгенія Лоза, Артем Ткаченко, Ірма Вітовська, Олеся Жураковська, Наталія Васько, Віталіна Біблів, Олег Примогенов, Олександр Ігнатуша, Віктор Сарайкін...
Сюжет:Український 4-х серійний міні-серіал, заснований на реальних подіях. Виданий до 27-річчя з дня Катастрофи на Чорнобильській АЕС. Історія кохання двох молодих людей, 17-річної дівчини та солдата, на тлі Чорнобильської атомної катастрофи.Тривалість: ~ 00:48:10
Якість: HDTVRip 1080p
Відео:
кодек: H.264
розмір кадру: 1920 х 1080
бітрейт: ~3990 кб/с
частота кадрів: 25 к/с (fps)
Аудіо #1:
мова: українська
переклад: професійний дубльований
кодек: AAC 2.0
бітрейт: 192 кб/с
запис звуку з каналу: СТБ

Media info:

General
Unique ID : 248345492856304260694902330097887951818 (0xBAD59A24D5BD512049D8AC734E593BCA)
Format : Matroska
Format version : Version 4
File size : 1.30 GiB
Duration : 44 min 31 s
Overall bit rate : 4 185 kb/s
Movie name : Метелики.2013.E01 by mazepa.to
Encoded date : UTC 2021-04-27 12:01:32
Writing application : mkvmerge v38.0.0 ('The Silent Type') 64-bit
Writing library : libebml v1.3.9 + libmatroska v1.5.2
Video
ID : 1
Format : AVC
Format/Info : Advanced Video Codec
Format profile :
Format settings : CABAC / 1 Ref Frames
Format settings, CABAC : Yes
Format settings, Reference : 1 frame
Codec ID : V_MPEG4/ISO/AVC
Duration : 44 min 31 s
Bit rate : 3 990 kb/s
Width : 1 920 pixels
Height : 1 080 pixels
Display aspect ratio : 16:9
Frame rate mode : Constant
Frame rate : 25.000 FPS
Color space : YUV
Chroma subsampling : 4:2:0
Bit depth : 8 bits
Scan type : Progressive
Bits/(Pixel*Frame) : 0.077
Stream size : 1.24 GiB (95%)
Language : Ukrainian
Default : Yes
Forced : No
Audio
ID : 2
Format : AAC LC
Format/Info : Advanced Audio Codec Low Complexity
Codec ID : A_AAC-2
Duration : 44 min 31 s
Bit rate : 192 kb/s
Channel(s) : 2 channels
Channel layout : L R
Sampling rate : 48.0 kHz
Frame rate : 46.875 FPS (1024 SPF)
Compression mode : Lossy
Stream size : 61.3 MiB (5%)
Language : Ukrainian
Default : Yes
Forced : No

Скріншоти:






Семпл:

Джерело 1_________Джерело 2_________Джерело 3_________Джерело 4_________Джерело 5_________Джерело 6
У випадку, якщо з усіх джерел семпл видалять, прохання повідомити мені у ПРИВАТ
Подяка:1. Пану sergiyko.5 за створення релізуРеліз створено:
Реліз створено за підтримки BMK12

Anonymous

Опублікувати 15-Чер-2022 17:03

[Цитувати]

Одного разу під Полтавою 1-12 сезони (1-228 серії) (2014 - 2020) WEB-DL 1080p Жанр: комедія, сімейний, романтичний
Країна: Україна
Кінокомпанія: Квартал-95
Режисер: Андрій Бурлака
Актори: Ірина Сопонару (Яринка), Юрій Ткач (Юрчик), Віктор Гевко (Кум), Олександр Теренчук (Дільничний), Анна Саліванчук (Віра), Олександр Данильченко (дід Петро), Володимир Зеленський (голос за кадром).
Сюжет:Іноді одні проекти стають настільки популярними, що на їх основі виникають і інші не менш неймовірні програми. Так сталося зі скетчкомом «Країна У», який переріс в ситком «Одного разу під Полтавою» на телеканалі ТЕТ. А все тому, що глядачам полюбилися герої серіалу, кожен з яких має свою унікальну історію та харизму.
Юрчик - романтик-ледащо, кум-аферист, красива Яринка, дід Петро і харизматична продавщиця Віра. Разом вони завжди знайдуть нові пригоди і візьмуть в них участь. Однак, чи вдасться їм знайти вихід із складних ситуацій? Чи зможуть такі різні герої знайти спільну мову? - Дізнавайтеся після перегляду проекту «Одного разу під Полтавою» і заряджайтесь позитивною енергією на весь день.
Тривалість: 1 серія: ~25:00 (цілком серій: 228) Якість: WEB-DL 1080p
Відео:
кодек: H.264
розмір кадру: 1920x1080
бітрейт: ~ 2500 кб/с
Аудіо:
мова: українська
кодек: AAC 2.0
бітрейт: 128 кб/с

Скріншоти


Джерело: Kinozal-Reliz
Особиста оцінка: 9 - давно не бачив настільки якісне кіно

Anonymous

Опублікувати 15-Чер-2022 17:03

[Цитувати]

Кава з кардамоном (Сезон 1) (2021) WebDLRip 720p Жанр: драма, мелодрама, романтичний
Країна: Україна, Польща
Кінокомпанія: Solar Media Entertainment, СТБ
Режисер: Ірина Громозда
Актори: Олена Лавренюк, Павел Дельонг, Тарас Цимбалюк, Олег Стальчук, Леся Самаєва, Ніна Набока, Віталій Ажнов, Павло Костіцин
Сюжет:Хвилююча та пристрасна оповідь про нерівне, грішне почуття героїв - одруженого польського шляхтича Адама та юної української сироти Анни. Історія любові розгортається на тлі революції 1848-1849 років, яку прозвали “Весною народів”

Список серій:

01. Анна захоплена новим сусідом
02. Повернення Адама
03. Чи зможе Анна уникнути заміжжя?
04. Нове життя у Львові
05. Таємні зустрічі
06. Чи стане Анна дружиною Адама?
07. Анна народила доньку
08. Розпач та самотність
09. Андрій ховається від жандармів
10. Політика проти кохання?
Тривалість: 1 серія: 00:50 (цілком серій: 10)
Якість: WEBDLRip Відео:
кодек: H.264
розмір кадру: 1280x720
бітрейт: 2200 кб/с
Аудіо:
мова: українська
переклад: оригінал
кодек: AAC 2.0
бітрейт: 128 кб/с

Скріншоти



Джерело:
Особиста оцінка: 0 - не дивився
Увага: 07.01.2022 торент оновлено. Прохання перекачати файли.

Anonymous

Опублікувати 15-Чер-2022 17:03

[Цитувати]

Слід (Сезон 1, Серії 1-203) (2020-2021) WEBRip-AVC Жанр: детектив
Країна: Україна
Кінокомпанія: СТБ, Space Production
Режисер: Олександра Гончарова
Актори: Тетяна Кравченко , Ігор Волков , Богдан Рубан , Оксана Борбат та інші.
Сюжет:За сюжетом структура «ОСА» («Особлива слідча агенція») об'єднує унікальних спеціалістів різних сфер: патологоанатома, баліста, аналітика, оперативників, лаборантів, детективів, айтішників та ін. Під керівництвом голови організації Ольги Сергіївни Косач (колеги називають її «оса») вони проводять весь спектр важких експертиз, досліджень та надають допомогу поліції у розкритті найважчих злочинів.Тривалість: 1 серія: ~ 44 хв. (цілком серій: 203 з 203)

Перелік серій

Слід 1 серія: у місті орудує серійний маніяк Органіст
Слід 2 серія: чи спіймають детективи ОСА Органіста?
Слід 3 серія: нові зачіпки у справі Органіста
Слід 4 серія: Органіст – член таємничої секти?
Слід 5 серія: напад на швидку допомогу
Слід 6 серія: вбивство в сауні
Слід 7 серія: вкрадене життя
Слід 8 серія: укол смерті
Слід 9 серія: покарання за подвійне життя
Слід 10 серія: таксист-маніяк вбиває своїх пасажирок
Слід 11 серія: хто вбив шлюбного афериста?
Слід 12 серія: полювання на відьом
Слід 13 серія: потонув чи розбився?
Слід 14 серія: хто викрав сурогатну матір?
Слід 15 серія: фермер без голови
Слід 16 серія: ціна слави
Слід 17 серія: що за «істота» вбиває молодих дівчат?
Слід 18 серія: смертельне прокляття чи холодний розрахунок?
Слід 19 серія: загадкове вбивство відомої актриси
Слід 20 серія: Стас розслідує вбивство подруги
Слід 21 серія: вбивство скандального журналіста
Слід 22 серія: смертельне шосе
Слід 23 серія: хто розчленував відомого адвоката?
Слід 24 серія: вбивство заради свободи
Слід 25 серія: самогубство чи жорстока розплата?
Слід 26 серія: помста за вкрадені роки
Слід 27 серія: хто викинув з вікна ректора університету?
Слід 28 серія: у Києві вбито бельгійського антиквара
Слід 29 серія: вбивця для кілера
Слід 30 серія: невідомий знайдений мертвим у багажнику власного авто
Слід 31 серія: потопельниця з Мертвого моря
Слід 32 серія: загадкове вбивство в номері готелю
Слід 33 серія: чорна репутація вбила відому докторку
Слід 34 серія: самосуд над наркоторговцем
Слід 35 серія: у столиці масово зникають діти
Слід 36 серія: смертельний скарб
Слід 37 серія: кровна помста
Слід 38 серія: божевілля або холодний розрахунок?
Слід 39 серія: отруєння власника шлюбної агенції
Слід 40 серія: замах на еко-активіста
Слід 41 серія: вбивство заради худорлявості
Слід 42 серія: зміїний слід
Слід 43 серія: розплата за чужі секрети
Слід 44 серія: лом помсти
Слід 45 серія: куріння вбиває
Слід 46 серія: вбивство в багряних тонах
Слід 47 серія: небезпечні ігри
Слід 48 серія: вбивство студентки-еколога
Слід 49 серія: смертельний укус
Слід 50 серія: хто вбив відомого художника?
Слід 51 серія: вбивство Отелло
Слід 52 серія: хто заражає сказом пересічних людей?
Слід 53 серія: помста за зіпсоване дитинство
Слід 54 серія: розправа над папараці
Слід 55 серія: помста за підлітковий бунт
Слід 56 серія: хто й навіщо задушив 8-річного хлопчика?
Слід 57 серія: вчитель-наркобарон
Слід 58 серія: пенсіонерів вбивають через квартири
Слід 59 серія: подвійне життя одинадцятикласниці
Слід 60 серія: подвійна помста
Слід 61 серія: хто надсилає в ОСА відрубані пальці?
Слід 62 серія: обличчя зі шрамом
Слід 63 серія: вовк в овечій шкурі
Слід 64 серія: витончене вбивство в номері готелю
Слід 65 серія: Ромео і Джульєтта
Слід 66 серія: серійний маніяк знову на свободі?
Слід 67 серія: остання фотосесія
Слід 68 серія: італійські пристрасті
Слід 69 серія: божевільний професор
Слід 70 серія: розплата за минуле
Слід 71 серія: непотрібний свідок
Слід 72 серія: куди зник труп з місця злочину?
Слід 73 серія: помста за минуле
Слід 74 серія: хто вбив ув’язнених-шпигунів?
Слід 75 серія: фатальна помилка вбивці
Слід 76 серія: тіла у люку
Слід 77 серія: вибухові навушники
Слід 78 серія: злочин на мільйон
Слід 79 серія: холоднокровне вбивство вчительки
Слід 80 серія: зникнення майора Гайворона
Слід 81 серія: фатальний політ
Слід 82 серія: прокляття грошей
Слід 83 серія: жорстоке вбивство мільйонера
Слід 84 серія: таємниця манекена
Слід 85 серія: небезпечна трійця
Слід 86 серія: випадкова смерть
Слід 87 серія: керівник вбив свою колегу-коханку?
Слід 88 серія: ОСА розслідує вбивство немовля
Слід 89 серія: пограбування і подвійне вбивство
Слід 90 серія: золотий фенікс
Слід 91 серія: мамина донька
Слід 92 серія: страшна знахідка
Слід 93 серія: передчасна смерть
Слід 94 серія: чаша терпіння
Слід 95 серія: око за око
Слід 96 серія: викрадачі мертвих
Слід 97 серія: смертельний танок
Слід 98 серія: точка неповернення
Слід 99 серія: таємниця Аріадни
Слід 100 серія: брудні гроші
Слід 101 серія: материнське прокляття
Слід 102 серія: яблуко від яблуні
Слід 103 серія: смертельний екстрим
Слід 104 серія: квітковий маніяк
Слід 105 серія: погане виховання
Слід 106 серія: сімейний підряд
Слід 107 серія: однієї крові
Слід 108 серія: золоте немовля
Слід 109 серія: карамелька від серця
Слід 110 серія: летальна турбота
Слід 111 серія: криваве фото
Слід 112 серія: смертельний виграш
Слід 113 серія: брудні гроші
Слід 114 серія: милий нелюб
Слід 115 серія: гіркий спадок
Слід 116 серія: Дарницький шакал
Слід 117 серія: закон джунглів
Слід 118 серія: ціна зради
Слід 119 серія: помста красуні
Слід 120 серія: крок на випередження
Слід 121 серія: могила для красуні
Слід 122 серія: фатальне парі
Слід 123 серія: мій головний фанат
Слід 124 серія: небезпечний зв’язок
Слід 125 серія: останнє танго
Слід 126 серія: псих
Слід 127 серія: дизлайк
Слід 128 серія: красив е життя
Слід 129 серія: принцип доміно
Слід 130 серія: казус ювеліра
Слід 131 серія: кредитний зашморг
Слід 132 серія: повернення Цезаря
Слід 133 серія: вибухова справедливість
Слід 134 серія: код небезпеки – червоний
Слід 135 серія: шпигунські пристрасті
Слід 136 серія: вишукана помста
Слід 137 серія: життя на аукціон
Слід 138 серія: погана характеристика
Слід 139 серія: сліпа помста
Слід 140 серія: брудна справа
Слід 141 серія: сина Небесної викрали!
Слід 142 серія: що пов’язує Месника та Косач?
Слід 143 серія: Міноборони та Месник – спільники?
Слід 144 серія: правда про Месника
Слід 145 серія: вбивство заради життя
Слід 146 серія: успіх на кістках
Слід 147 серія: листи для кілера
Слід 148 серія: хто полює на архітекторів?
Слід 149 серія: вакцина щастя
Слід 150 серія: квартирне питання
Слід 151 серія: серцева рана
Слід 152 серія: погані люди
Слід 153 серія: нащадки Медічі
Слід 154 серія: черга на життя
Слід 155 серія: у борговій петлі
Слід 156 серія: cмертельні квіти
Слід 157 серія: сімейні цінності
Слід 158 серія: передбачення Афіни
Слід 159 серія: останнє шоу
Слід 160 серія: скелет у шафі
Слід 161 серія: гіркий присмак брехні
Слід 162 серія: зміїне жало
Слід 163 серія: життя шкереберть
Слід 164 серія: невгамовна Ліза
Слід 165 серія: удар у спину
Слід 166 серія: щаслива Настя
Слід 167 серія: вкрадена афера
Слід 168 серія: нічна гостя
Слід 169 серія: вечеря зі смертю
Слід 170 серія: люди гинуть за метал
Слід 171 серія: тихе болото
Слід 172 серія: смертельне хоку
Слід 173 серія: ложка дьогтю
Слід 174 серія: кривавий легіон
Слід 175 серія: кровний зв’язок
Слід 176 серія: зайвий кадр
Слід 177 серія: cновиди помирають першими
Слід 178 серія: єдиний син
Слід 179 серія: кіно для дорослих
Слід 180 серія: рогоносець
Слід 181 серія: остання ніч Луки
Слід 182 серія: моя твоя хвороба
Слід 183 серія: бетонний саркофаг
Слід 184 серія: відданий пес
Слід 185 серія: замкнене коло насильства
Слід 186 серія: залізобетонні докази
Слід 187 серія: закляті друзі
Слід 188 серія: любить – не любить
Слід 189 серія: до ворожки не ходи
Слід 190 серія: таємниця Клеопатри
Слід 191 серія: чорна меса
Слід 192 серія: наречена для багатія
Слід 193 серія: чужі гріхи
Слід 194 серія: ампула смерті
Слід 195 серія: шляхетні мотиви
Слід 196 серія: нове життя Жанни
Слід 197 серія: вбивчий бурштин
Слід 198 серія: святкова смерть
Слід 199 серія: недобрий Дід Мороз
Слід 200 серія: крижане серце
Слід 201 серія: ніжний вік
Слід 202 серія: поганих вбивати не шкода
Слід 203 серія: гени не вирішують
Якість: WEBRip-AVC
Відео:
кодек: H.264
розмір кадру: 854 х 480
бітрейт: ~ 1200 кб/с
Аудіо:
мова: українська в деяких серіях присутня російська
озвучення: оригінал
кодек: AAC 2.0
бітрейт: 128 кб/с

MediaInfo

Формат : MPEG-4
Профіль формату : Base Media
Ідентифікатор кодеку : isom (isom/iso2/avc1/mp41)
Розмір файлу : 401 МіБ
Тривалість : 42 хв. 7 сек.
Загальний бітрейт : 1 330 Кбіт/сек
Відео
Ідентифікатор : 1
Формат : AVC
Формат/Відомості : Advanced Video Codec
Профіль формату :
Налаштування формату : CABAC / 4 Ref Frames
Налаштування формату, CABAC : Так
Налаштування формату, RefFrames : 4 кадр(-и,-ів)
Ідентифікатор кодеку : avc1
Ідентифікатор кодеку/Відомості : Advanced Video Coding
Тривалість : 42 хв. 7 сек.
Бітрейт : 1 196 Кбіт/сек
Ширина кадру : 854 пікс.
Висота кадру : 480 пікс.
Співвідношення сторін екрану : 16:9
Оригінальне співвідношення сторін екрану : 16:9
Режим частоти кадрів : Постійний
Частота кадрів : 25.000 кадр/сек
Простір кольору : YUV
Субдискретизація хроматичності : 4:2:0
Бітова глибина : 8 біт
Тип сканування : Прогресивний
Біт/(Пікселі*Кадри) : 0.117
Розмір потоку : 360 МіБ (90%)
Бібліотека кодування : x264 core 160
Налаштування бібліот. кодування : cabac=1 / ref=3 / deblock=1:0:0 / analyse=0x3:0x113 / me=hex / subme=7 / psy=1 / psy_rd=1.00:0.00 / mixed_ref=1 / me_range=16 / chroma_me=1 / trellis=1 / 8x8dct=1 / cqm=0 / deadzone=21,11 / fast_pskip=1 / chroma_qp_offset=-2 / threads=15 / lookahead_threads=2 / sliced_threads=0 / nr=0 / decimate=1 / interlaced=0 / bluray_compat=0 / constrained_intra=0 / bframes=3 / b_pyramid=2 / b_adapt=1 / b_bias=0 / direct=1 / weightb=1 / open_gop=0 / weightp=2 / keyint=250 / keyint_min=25 / scenecut=40 / intra_refresh=0 / rc_lookahead=40 / rc=crf / mbtree=1 / crf=20.0 / qcomp=0.60 / qpmin=5 / qpmax=51 / qpstep=4 / ip_ratio=1.41 / aq=1:1.00
Codec configuration box : avcC
Аудіо
Ідентифікатор : 2
Формат : AAC LC
Формат/Відомості : Advanced Audio Codec Low Complexity
Ідентифікатор кодеку : mp4a-40-2
Тривалість : 42 хв. 7 сек.
Режим розрахунку бітрейта : Постійний (CBR)
Бітрейт : 128 Кбіт/сек
Кількість каналів : 2 канал(-и,-ів)
Channel layout : L R
Частота дискретизації : 48.0 кГц
Частота кадрів : 46.875 кадр/сек (1024 SPF)
Тип стиснення : Із втратами
Розмір потоку : 38.6 МіБ (10%)
Default : Так
Alternate group : 1

Скріншоти



Джерело:
Особиста оцінка: 0 - не дивився

Anonymous

Опублікувати 15-Чер-2022 17:03

[Цитувати]

Прибулець (Сезон 1-2) (2020-2021) WEB-DL 1080p Жанр: комедія
Країна: Україна
Кіностудія / кінокомпанія: Мамахохотала
Режисер: Наталія Пасеницька
Актори: Анатоль Фон-Філандра, Марія Крушинська, Володимир Кравчук, Костянтин Данилюк, Леся Самаєва, Олександр Ярема, Валентина Вовченко, Дем’ян Шиян, Дмитро Вівчарюк, Дмитро Андрієнко...
Сюжет:Молода сімейна пара тільки-тільки почала налагоджувати сімейний побут і відносини, але тут їм на голову звалюється прибулець. Його корабель зазнав аварії, а мила і симпатична дівчина Оксана вирішує прихистити його, в чому переконує і свого нареченого Колю. Здавалося б, що добрий вчинок не може призвести до наслідків. Але гість з іншої планети немов притягує проблеми, які доводиться вирішувати Оксані та Колі.Тривалість: ~ 00:23:10
Якість: WEB-DL 1080p
Відео:
кодек: H.264
розмір кадру: 1920 х 1080
бітрейт: ~4000 кб/с
частота кадрів: 25 к/с (fps)
Аудіо #1:
мова: українська
переклад: оригінал
кодек: AAC 2.0
бітрейт: 192 кб/с

Media info:

General
Unique ID : 58650662747236868316192273490055663633 (0x2C1FB4EE816C6F06685B59F0CC6E1011)
Format : Matroska
Format version : Version 4
File size : 728 MiB
Duration : 24 min 22 s
Overall bit rate : 4 174 kb/s
Movie name : Прибулець.S01E01 by mazepa.to
Encoded date : UTC 2021-04-23 19:52:57
Writing application : mkvmerge v38.0.0 ('The Silent Type') 64-bit
Writing library : libebml v1.3.9 + libmatroska v1.5.2
Video
ID : 1
Format : AVC
Format/Info : Advanced Video Codec
Format profile :
Format settings : CABAC / 4 Ref Frames
Format settings, CABAC : Yes
Format settings, Reference : 4 frames
Codec ID : V_MPEG4/ISO/AVC
Duration : 24 min 22 s
Bit rate : 4 000 kb/s
Width : 1 920 pixels
Height : 1 080 pixels
Display aspect ratio : 16:9
Frame rate mode : Variable
Frame rate : 24.821 FPS
Color space : YUV
Chroma subsampling : 4:2:0
Bit depth : 8 bits
Scan type : Progressive
Bits/(Pixel*Frame) : 0.078
Stream size : 694 MiB (95%)
Writing library : x264 core 155 r2917 0a84d98
Encoding settings : cabac=1 / ref=3 / deblock=1:0:0 / analyse=0x3:0x113 / me=hex / subme=7 / psy=1 / psy_rd=1.00:0.00 / mixed_ref=1 / me_range=16 / chroma_me=1 / trellis=1 / 8x8dct=1 / cqm=0 / deadzone=21,11 / fast_pskip=1 / chroma_qp_offset=-2 / threads=12 / lookahead_threads=2 / sliced_threads=0 / nr=0 / decimate=1 / interlaced=0 / bluray_compat=0 / constrained_intra=0 / bframes=3 / b_pyramid=2 / b_adapt=1 / b_bias=0 / direct=1 / weightb=1 / open_gop=0 / weightp=2 / keyint=75 / keyint_min=25 / scenecut=40 / intra_refresh=0 / rc=2pass / mbtree=0 / bitrate=4000 / ratetol=1.0 / qcomp=0.60 / qpmin=0 / qpmax=69 / qpstep=4 / cplxblur=20.0 / qblur=0.5 / ip_ratio=1.40 / pb_ratio=1.30 / aq=1:1.00
Language : English
Default : Yes
Forced : No
Audio
ID : 2
Format : AAC LC
Format/Info : Advanced Audio Codec Low Complexity
Codec ID : A_AAC-2
Duration : 24 min 22 s
Bit rate : 192 kb/s
Channel(s) : 2 channels
Channel layout : L R
Sampling rate : 48.0 kHz
Frame rate : 46.875 FPS (1024 SPF)
Compression mode : Lossy
Delay relative to video : -80 ms
Stream size : 33.5 MiB (5%)
Language : Ukrainian
Default : Yes
Forced : No

Скріншоти:






Семпл:

Джерело 1_________Джерело 2_________Джерело 3_________Джерело 4_________Джерело 5_________Джерело 6
У випадку, якщо з усіх джерел семпл видалять, прохання повідомити мені у ПРИВАТ
Подяка:1. Пану sergiyko.5 за створення релізуРеліз створено:
Реліз створено за підтримки BMK12

Anonymous

Опублікувати 15-Чер-2022 17:03

[Цитувати]

Сліпа (Сезон 3) (2020) WEBRip 720р Жанр: Мелодрама
Країна: Україна
Кінокомпанія: Space production - Дар’я Легоні-Фіалко
Режисер: Сергій Уманець, Єлизавета Хоменко, Анатолій Степаненко
Актори: Зазначу, що телеканал СТБ не називає актрису, яка зіграла головну героїню, а також акторський склад: «Оскільки проєкт заснований на реальних подіях, то всі герої звичайні люди», відповіли «Телекритиці» на уточнювальні питання...
Сюжет:Головна героїня проекту − сліпа провидиця баба Люба. Вона володіє мудрістю предків і відчуває людей, які звертаються до неї за допомогою. Завдяки прикметам і особливим знанням вона допомагає героям захистити себе і своїх близьких від негараздів. Зв’язуватися з навколишнім світом знахарці допомагає її внучка Катя. Вона веде блог, у якому розповідає історії людей, які шукають допомоги у бабусі. А ще ділиться її мудрістю …Тривалість: 1 серія: ~25 хвилин (цілком серій: 99 з 99)

Перелік серій

1 серія -Траурний вінок біля дороги приведе Влада до провидиці
2 серія - Проклятий подарунок
3 серія - Нова кохана хоче вбити чоловіка і його сина?
4 серія - Смерть на день народження
5 серія - Андрій шукає дівчину мрії
6 серія - Хлопця Тані підмінили?
7 серія - Обручки зруйнували стосунки Діни
8 серія - Наталя чує плач ненародженого сина
9 серія - Солодке зло
10 серія - Нещастя в подарунок
11 серія - Дід дружини попереджає Рому про небезпеку
12 серія - Повний місяць змінив долю Антона
13 серія - Про яку біду попереджає видіння?
14 серія - Андрія душить тягар минулого
15 серія - Рідна кров кличе Вероніку за сином
16 серія - Маша видавала себе за дружину батька і поплатилася за це
17 серія - Розплата за подвійне життя
18 серія - Помста мачухи
19 серія - Між теперішнім і минулим
20 серія - Чому щастя пішло з сім'ї Алли?
21 серія - Хто намагається зіпсувати життя маленької дівчинки?
22 серія - Квартира з сюрпризом
23 серія - Щастя за порогом
24 серія - Фальшиве життя
25 серія - Любовний трикутник
26 серія - Зоя накликала біду вплетеними думками
27 серія - Старість у дзеркалі
28 серія - Забуте кохання
29 серія - Живі іграшки
30 серія - Розбите щастя
31 серія - Клятва матері
32 серія - Темна сила забирає щастя з родини
33 серія - Кохання за гроші
34 серія - Небажана невістка
35 серія - Проклята наречена
36 серія - Знак з того світу
37 серія - Розірване намисто
38 серія - Зашморг любові
39 серія - Таємничий нащадок
40 серія - Незаплановане щастя
41 серія - Підміна долі
42 серія - Маргарита вимила щастя зі свого дому
43 серія - Дзвінок з того світу
44 серія - Передарована доля
45 серія - Дитина в подарунок
46 серія - Загадкова зрада
47 серія - Долю не обдурити
48 серія - Вісник смерті переслідує сім’ю Тетяни
49 серія - Подвійна зрада
50 серія - Букет нареченої приніс Марії нещастя
51 серія - Розплата за легковажність
52 серія - Подарунок з минулого
53 серія - Забута прикмета
54 серія - Несподіване щастя
55 серія - Сила імені
56 серія - Переплетені долі
57 серія - Смертельна турбота
58 серія - Неминуча розлука
59 серія - Затьмарений розум
60 серія - Знаки долі – передвісники смерті
61 серія - Змарнований час
62 серія - Два батька для однієї Поліни
63 серія - Загадкове зникнення нареченого
64 серія - Незнайомка зі снів
65 серія - Підмінена доля
66 серія - Скільки коштує щаслива доля?
67 серія - Заборонене кохання
68 серія - Відрізане щастя
69 серія - Розплата за подвійне життя
70 серія - Непроханий гість приніс біду в дім
71 серія - Одні негаразди на двох
72 серія - Перевірка кохання на міцність
73 серія - Голос матері з того світу
74 серія - Зачаровані почуття
75 серія - Сердечні страхи
76 серія - Чужих дітей не буває?
77 серія - Доленосна пропозиція
78 серія - Криваві сльози
79 серія - Засохлі квіти – згаслі почуття
80 серія - Проблеми в борг
81 серія - Кохання з сайту знайомств
82 серія - Забобони долі
83 серія - Доленосне ворожіння
84 серія - Фатальне дефіле
85 серія - Поклик минулого
86 серія - Дух лісу ройнує життя Валентинни
87 серія - Відьма із задзеркалля
88 серія - Заморське зло
89 серія - Про що попереджує бруд уві сні
90 серія - Кохання з інтернету
91 серія - Таємниця зв'язку між матер'ю і дитиною
92 серія - Вузлики на ланцюжку
93 серія - Магічна сила чайного сервізу
94 серія - Селфі із смертю
95 серія - Загублене щастя
96 серія - Безлад у житті
97 серія - Секретне місце
98 серія - Заплутанні сновидіння
99 серія - Дурна кров
...
Якість: WEBRip 720р
Відео:
кодек: H.264
розмір кадру: 1 280х720
бітрейт: ~1 770 кб/с
Аудіо:
мова: українська
переклад: оригінал
кодек: AAC 2.0
бітрейт: 128 кб/с

Скріншоти





https://www.youtube.com/embed/AlfxwTSyUPEДжерело: Телеканал СТБ
Особиста оцінка: 8 - мені сподобалося

Anonymous

Опублікувати 15-Чер-2022 17:03

[Цитувати]

Слов'яни (Сезон 1) / Slovania (Season 1) (2021) WEB-DL 1080p Жанр: фентезі, пригодницький
Країна: Словаччина, Україна

Кінокомпанія / телеканал: «Медійна Група Європейського партнерства», «Сінемадей», «Wandal Production» за участю «TV JOJ» і «1 + 1»
Режисер: Петер Бебяк, Міхал Блашко, Сергій Санін
Актори/ролі озвучують: Юрай Лой, Поліна Носихіна, Томас Масталір, Яна Квантікова, Душан Чінкота, Зузана Фіалова, Річард Аутнер, Олег Мосійчук, Олександр Рудинський, Марек Васут
Сюжет:VII століття нашої ери. Серіал розповідає про події в двох слов'янських поселеннях - городище хліборобів Фурнау і Великому Столі, селищі мисливців і пастухів. У цьому селищі, схованому високо в Карпатах, живе юна травниця Драга - дівчина-сирота, яка володіє магічними здібностями і шукає спосіб врятувати брата. Одного разу в лісі вона рятує чужака, пораненого незнайомця, який не пам'ятає, хто він і звідки.Тривалість: 1 серія: 45:00 (цілком серій: 12)

Перелік серій

Серія 1
Серія 2
Серія 3
Серія 4
Серія 5
Серія 6
Серія 7
Серія 8
Серія 9
Серія 10
Серія 11
Серія 12
Якість: WEB-DL 1080p
Відео:
кодек: H.264
розмір кадру: 1920 х 1080
бітрейт: ~ 7500 к/с
Аудіо:
мова: українська
переклад: багатоголосий закадровий
кодек: MP2 2.0
бітрейт: 256 кб/с
Джерело озвучення:

Скріншоти

Особиста оцінка: 10 - без зайвих вагань рекомендую всім!

Anonymous

Опублікувати 15-Чер-2022 17:03

[Цитувати]

Секс, Інста і ЗНО (SIZ) (Сезон 1) (2020) WEBRip 1080p Жанр: драма
Країна: Україна

Кінокомпанія: 1+1 Продакшн
Режисер: Антоніо Лукіч
Актори: Ганнуся Ярмоленко, Андрій Максімов, Софія Слюсаренко, Любава Шокля, Юрій Рекс, Андрій Косенко, Каріна Черчевич, Віталій Зелений, Григорій Наумов, Олександр Яценко, Роланд Мішко, Ірма Вітовська, Наталія Васько, Ірина Кудашова, Юлія Гамалій
Сюжет:Про неї. Про нього. Про тебе. Про справжнє. Відверто й правдиво. Незручно й без цензури. Жодних стереотипів.
«От такий а**єнний день» – видихає у кадр головна героїня Саша Моцак. Ще зранку вона була найпопулярнішою дівчиною в школі, але до вечора все змінилося. Єва Горбатюк – конкурентка Саші. Вона не спиниться ні перед чим, поки всі в школі не почнуть вважати її кращою за Сашу. Саме з їхнього протистояння і починається історія підлітків, що знаходяться на межі між дитинством та дорослим життям.
Тривалість: 1 серія: ~ 22 хв. (цілком серій: 13)

Перелік серій

01-13
Якість: WEBDLRip
Відео:
кодек: H.264
розмір кадру: 1920 х 1080
бітрейт: 7800 кб/с
Аудіо:
мова: українська, здебільшого суржик
переклад: оригінал
кодек: AAC 2.0
бітрейт: 160 кб/с

Скріншоти



Джерело:

Anonymous

Опублікувати 15-Чер-2022 17:03

[Цитувати]

Слов'яни (Сезон 1) / Slovania (Season 1) (2021) WEB-DLRip Жанр: фентезі, пригодницький
Країна: Словаччина, Україна

Кінокомпанія / телеканал: «Медійна Група Європейського партнерства», «Сінемадей», «Wandal Production» за участю «TV JOJ» і «1 + 1»
Режисер: Петер Бебяк, Міхал Блашко, Сергій Санін
Актори/ролі озвучують: Юрай Лой, Поліна Носихіна, Томас Масталір, Яна Квантікова, Душан Чінкота, Зузана Фіалова, Річард Аутнер, Олег Мосійчук, Олександр Рудинський, Марек Васут
Сюжет:VII століття нашої ери. Серіал розповідає про події в двох слов'янських поселеннях - городище хліборобів Фурнау і Великому Столі, селищі мисливців і пастухів. У цьому селищі, схованому високо в Карпатах, живе юна травниця Драга - дівчина-сирота, яка володіє магічними здібностями і шукає спосіб врятувати брата. Одного разу в лісі вона рятує чужака, пораненого незнайомця, який не пам'ятає, хто він і звідки.Тривалість: 1 серія: 45:00 (цілком серій: 12)

Перелік серій

Серія 01
Серія 02
Серія 03
Серія 04
Серія 05
Серія 06
Серія 07
Серія 08
Серія 09
Серія 10
Серія 11
Серія 12
Якість: WEB-DLRip
Відео:
кодек: XviD
розмір кадру: 704 х 352
бітрейт: ~ 1500 к/с
Аудіо:
мова: українська
переклад: багатоголосий закадровий
кодек: AC3 2.0
бітрейт: 192 кб/с
Джерело озвучення:

Скріншоти


Особиста оцінка: 10 - без зайвих вагань рекомендую всім!

Anonymous

Опублікувати 15-Чер-2022 17:03

[Цитувати]

СуперКопи 5. Суперповернення (Серії 1-30) (2020) Жанр: комедія, сімейний
Країна: Україна
Кінокомпанія: 17 production
Режисер: Євген Чернишов
Актори: Андрій Бурим,Роман Равицький,Тарас Цимбалюк,Володимир Гладкий,Олександр Погребняк,Ольга Сторожук,Павло Тупіков,Сергій Куда,Ерік Блищик,Аліка Бурим,Аліса Клюшкіна,Вікторія Варлей,Ігор Гнєзділов,Світлана Прус,Філіп Козлов,Олена Бондарєва-Рєпіна
Сюжет:СуперКопи — український комедійний серіал, знятий студією «17 production» та телеканалом «НЛО TV». Прем'єра серіалу відбулась 15 лютого 2016 року на телеканалі «НЛО TV». Станом на 2020 рік вийшов 5 сезон серіалу.
Перші два сезони були російськомовними. Починаючи з 3 сезону, який стартував 16 жовтня 2017 року, серіал став україномовним
Тривалість: 1 серія: 25:00 (цілком серій: 30)
Якість: WEB-DL
Відео:
кодек: H.264
розмір кадру: 2048х1080
бітрейт: 1600 кб/с
Аудіо:
мова: українська
переклад: оригінал
кодек: AAC 2.0
бітрейт: 128 кб/с

Скріншоти

Джерело:
Особиста оцінка: 8 - мені сподобалося

Anonymous

Опублікувати 15-Чер-2022 17:03

[Цитувати]

СуперКопи 4. (Серії 1-30) (2018) Жанр: комедія, сімейний
Країна: Україна
Кінокомпанія: 17 production
Режисер: Олександр Богданенко
Актори: Андрій Бурим, Фелікс Аброскін, Вікторія Варлей, Павло Тупіков, Ольга Сторожук, Тарас Цимбалюк, Ярослав Герус, Сергій Куда, Аліса Клюшкіна, Олександр Погребняк
Сюжет:Поліцейський відділок на чолі з Георгієм Багратіоновичем Маміашвілі отримує нові завдання і виклики! Суперкопам доведеться розібратися з аферистами, які промишляють кредитними картками, продавцями наркотиків, порушниками ПДР, викрадачами кружки Баранова, а крім іншого — з'ясувати стосунки в колективі, навести лад у спілкуванні чоловіків із жінками та начальника з підлеглими.Тривалість: 1 серія: 25.00 (цілком серій: 30)
Якість: WEB-DL
Відео:
кодек: H.264
розмір кадру: 1280 х 720
бітрейт: 1000 кб/с
Аудіо:
мова: українська
переклад: оригінал
кодек: AAC 2.0
бітрейт: 126 кб/с

Скріншоти

Джерело:
Особиста оцінка: 9 - давно не бачив настільки якісне кіно

Anonymous

Опублікувати 15-Чер-2022 17:03

[Цитувати]

Стартапери (Сезон 1) (2020) WEB-DL 1080p Жанр: комедія
Країна: Україна
Кінокомпанія: AMFILM
Режисер: Аннамарія Індріксон
Актори: Артемій Вовк, Сергій Середа, Анастасія Капінус, Максим Кириченко, Дмитро Бзенко, Каріна Тімків, Рустем Емірсалієв, MAMARIKA, Ельзара Баталова, Василіса Шевцова, Владислав Попко, Лариса Андрєєва, Кирило Мишкін, Едуард Ярмолюк, Віталій Кіно, Сергій Алімов, Геннадій Шевчук
Сюжет:Андрій – геніальний програміст. Він вигадав штучний інтелект. Дізнавшись про таланти свого колишнього однокласника, Максим пропонує зробити веб студію та перевернути it індустрію до гори дриґом. Вони збирають команду мрії: дизайнерку - бунтарку Аліє, маркетолога-блогера Віталіті, кумедного програміста Петра та розумну блондинку Лізу. Та чи вдасться їм вразити інвестора Майкла Стоуна? І чи зможуть вони реалізувати свій стартап?Тривалість: 1 серія: ~ 25 хв. (цілком серій: 8)

Перелік серій

01
02
03
04
05
06
07
08
Якість: WEBDLRip
Відео:
кодек: H.264
розмір кадру: 1920 х 1080
бітрейт: 4589 кб/с
Аудіо:
мова: українська
переклад: оригінал
кодек: AAC 2.0
бітрейт: 256 кб/с

Скріншоти






Джерело:

Anonymous

Опублікувати 15-Чер-2022 17:03

[Цитувати]

Дільничний з ДВРЗ (Сезон 1) (2020) WEB-DL 1080p Жанр: детектив, комедія
Країна: Україна
Кінокомпанія: Mamas Film Production
Режисер: Роман Бровко, Роман Ткаченко
Актори: В'ячеслав Довженко, Ірина Авдєєнко, Тетяна Малкова, Світлана Штанько, Дмитро Сарансков, Володимир Гладкий, Віталій Іванченко та інші.
Сюжет:Сергій Бондар раніше був опером столичного відділення, але після скандалу на службі йому довелося відмовитися від колишньої роботи. Бондар отримує нового напарника ледачкуватого Петра Дзюбу і намагається звикнути до тихого життя провінції. Але виявляється, нудьгувати йому не доведеться. На ДВРЗ порядок встановлює кримінальна банда, яку «кришує» місцева поліція. Чесний поліцейський вирішує боротися з криміналом.Тривалість: 1 серія: ~ 43 хв. (цілком серій: 24)

Перелік серій

24 серій без назв з 24.
Якість: WEBDLRip
Відео:
кодек: H.264
розмір кадру: 1920 х 1080
бітрейт: ~ 1400 кб/с
Аудіо:
мова: українська
кодек: AAC 2.0
бітрейт: 128 кб/с

MediaInfo

Загальна інформація
Унікальний ID : 204447389296249561724607463506904280044 (0x99CF228971EB06AF05B07D40AB7AEBEC)
Повна назва : Дільничний з ДВРЗ
Формат : Matroska
Версія формату : Version 4
Розмір файлу : 494 МіБ
Тривалість : 43 хв. 12 сек.
Загальний бітрейт : 1 597 Кбіт/сек
Дата кодування : UTC 2020-02-21 12:32:54
Програма кодування : mkvmerge v40.0.0 ('Old Town Road + Pony') 32-bit
Бібліотека кодування : libebml v1.3.9 + libmatroska v1.5.2
Відео
Ідентифікатор : 1
Формат : AVC
Формат/Відомості : Advanced Video Codec
Профіль формату :
Налаштування формату : CABAC / 3 Ref Frames
Налаштування формату, CABAC : Так
Налаштування формату, RefFrames : 3 кадр(-и,-ів)
Ідентифікатор кодеку : V_MPEG4/ISO/AVC
Тривалість : 43 хв. 12 сек.
Бітрейт : 1 467 Кбіт/сек
Ширина кадру : 1 920 пікс.
Висота кадру : 1 080 пікс.
Співвідношення сторін екрану : 16:9
Режим частоти кадрів : Постійний
Частота кадрів : 25.000 кадр/сек
Простір кольору : YUV
Субдискретизація хроматичності : 4:2:0
Бітова глибина : 8 біт
Тип сканування : Прогресивний
Біт/(Пікселі*Кадри) : 0.028
Розмір потоку : 453 МіБ (92%)
Бібліотека кодування : x264 core 155 r2901 7d0ff22
Мова : Ukrainian
Default : Так
Forced : Ні
colour_range : Limited
Основні кольори : BT.709
Характеристики трансферу : BT.709
Матричні коефіцієнти : BT.709
Аудіо
Ідентифікатор : 2
Формат : AAC LC
Формат/Відомості : Advanced Audio Codec Low Complexity
Ідентифікатор кодеку : A_AAC-2
Тривалість : 43 хв. 12 сек.
Бітрейт : 128 Кбіт/сек
Кількість каналів : 2 канал(-и,-ів)
ChannelLayout : L R
Частота дискретизації : 44.1 кГц
Частота кадрів : 43.066 кадр/сек (1024 SPF)
Тип стиснення : Із втратами
Розмір потоку : 39.6 МіБ (8%)
Мова : Ukrainian
Default : Так
Forced : Ні

Скріншоти




Джерело:
Особиста оцінка: 8 - мені сподобалося
 

Поточний час: 04-Лип 21:25

Часовий пояс: UTC ± 0