Пошук знайшов 500 збігів

Автор Повідомлення

Anonymous

Опублікувати 21-Чер-2022 18:01

[Цитувати]

Денніс і Нешер: Без обмежень (Сезон 1) / Dennis & Gnasher: Unleashed! (Season 1) (2017-2018) WEB-DL 1080p Ukr/Eng Жанр: анімація, комедія, пригодницький
Країна: Великобританія

Кіностудія / кінокомпанія: Beano Studios
Режисери: Борис Гієстанд (Boris Hiestand), Кітті Тейлор (Kitty Taylor)
Актори англомовної версії: Фредді Фокс (Freddie Fox), Крістіна Валенсуела (Cristina Valenzuela), Борис Гієстанд (Boris Hiestand), Райан Семпсон (Ryan Sampson), Кетрін Драйсдейл (Kathryn Drysdale)...
Сюжет:Головні персонажі, жартівники і веселуни Денніс і Нешер, разом із невгамовними друзями Рубі, Джей-Джеєм, Піфейсом і їхньою улюбленою картоплею Полом будують шалені плани. Вони постійно потрапляють у різні неприємності, але вирішують усі проблеми, незважаючи на їхню складність.

Перелік серій:

Сезон 1:
01.Edubot 4000
02.Dare Dennis
03.Dinmaker Diva
04.Raiders of the Lost Sweetie
05.Escape from Azkabash
06.Griller Thriller
07.Pie Spy
08.Night of the Living Veg
09.The Hamazing Hamsterman
10.Prank Wars
11.Give Peas a Chance
12.The Fan
13.Screwtop Spudswap
14.Are We There Yeti
15.Super Paul
16.Wonder Sausage
17.Jurassic Bark
18.Screwtop In Love
19.The Great Beanotown Bake-Off
20.Why So Clonely
21.The Wrong Man-ace
22.Red And Black To The Future
23.Pig Trouble In Little Beanotown
24.I, Clawdia
25.Postcards From The Veg
26.The Whole Tooth
27.Freewheelin
28.Were-walter
29.Dennis TV
30.The Dog Ate It Miss
31.The Fangtom Menace
32.Gnashernal Treasure
33.Ralf's Last Prank
34.Extreme Sports Day
35.Today The Dog, Tomorrow The World
36.School Of Croc
37.Grizzly's Great Outdoors
38.Bertie's Backbone
39.Gnash Hit
40.Heroes In A Halfpipe
41.Gran Up
42.Tech Specs
43.Goodbye Rubi Doomsday
44.Pi In The Sky
45.BMXcess
46.Pieface Day
47.Crouching Dennis, Hidden Yeti
48.Double Crust
49.Get Lost
50.Call Of The Wild
51.Dennis and the Beanostalk (Part 1)
52.Dennis and the Beanostalk (Part 2)
Тривалість: ~ 00:11:00
Якість: WEB-DL 1080p
Відео:
кодек: H.264
розмір кадру: 1920 х 1080
бітрейт: ~5120 кб/с
частота кадрів: 25 к/с (fps)
Аудіо #1:
мова: українська
переклад: багатоголосий закадровий
кодек: AC3 2.0
бітрейт: 192 кб/с
запис звуку з каналу: Піксель
Аудіо #2:
мова: англійська
переклад: оригінал
кодек: AC3 2.0
бітрейт: 192 кб/с

Скріншоти:






Anonymous

Опублікувати 21-Чер-2022 18:01

[Цитувати]

Ші-Ра та принцеси могутності (сезон 1, серії 1-3) / She-Ra and the Princesses of Power (season 1, episodes 1-3) (2018) WEBRip 1080p Жанр: анімація, пригодницький, бойовик, фантастика, фентезі, сімейний
Країна: США

Кінокомпанія: DreamWorks Animation Television, Mattel Creations
Режисер: Ноель Стівенсон / Noelle Stevenson
Актори: Еймі Карреро / Aimee Carrero, Маркус Скрібнер / Marcus Scribner, Карен Фукухара / Karen Fukuhara, Аманда Мічалка / Amanda Michalka та інші
Сюжет:Сюжет оповідає про боротьбу жителів планети Етерія проти загарбників зі злої Орди. Коли дівчина Адора знаходить загублений меч, на неї переходить обов'язок героїні давнини Ші-Ри захищати світ. Вона приєднується до боротьби, котру очолюють принцеси народів Етерії, наділені магічними силами.Тривалість: 1 серія: ~ 24 хв (цілком серій: 3 з 13)

Перелік серій

1. Меч: Частина 1 / The Sword (Part 1)
2. Меч: Частина 2 / The Sword (Part 2)
3. Висміювання / Razz
Якість: WEBDLRip
Відео:
кодек: H.264
розмір кадру: 1920 x 1080
бітрейт: ~3300 кб/с
Аудіо:
мова: українська
переклад: багатоголосий закадровий
кодек: AAC 2.0
бітрейт: 192 кб/с
Джерело озвучення:
Lem0nka
Ролі озвучували: Lem0nka, Evelina, Basilio
Робота зі звуком: RAKETATV
Переклад: Ельф

Скріншоти






Особиста оцінка: 10 - без зайвих вагань рекомендую всім!

Anonymous

Опублікувати 21-Чер-2022 18:01

[Цитувати]

Любов, смерть та роботи (Сезон 1-3) / Love, Death & Robots (Season 1-3) (2019-2022) WEB-DLRip 1080p H.265 3xUkr/Eng | Sub Ukr/Eng- - -

1. Любов, смерть та роботи (Сезон 1) / Love, Death & Robots (Season 1) (2019) WEB-DLRip 1080p H.265 3xUkr/Eng | Sub Ukr/Eng

Любов, смерть та роботи (Сезон 1) / Love, Death & Robots (Season 1) (2019) WEB-DLRip 1080p H.265 3xUkr/Eng | Sub Ukr/Eng- - -Жанр: анімація, жахи, фантастика, фентезі, комедія, бойовик, кримінал
Країна: США
Кінокомпанія: Blur Studio, NetFlix
Режисер: Віктор Малдонадо, Альфредо Торрес, Тім Міллер
Актори: Скотт Вайт, Нолан Норс, Метью Янг Кінг, Джош Бренер, Еллі Кондрон та інші
Сюжет:Netflix здивує вас пропонуючи вам серію короткометрівок в якій поєднуються одразу кілька жанрів: фентезі, жахи, наукова фантастика, комедія. Кожна серія - це окрема історія зі своїм неповторним сюжетом. Тут можна побачити теми расизму, проблеми війни, особистих відносин, боротьби за свободу і незалежність, і багато іншого. У замальовках беруть участь найнеймовірніші персонажі. Це і роботи-мисливці за головами, інопланетні почвари, демони, перевертні, і навіть розумні продукти харчування.Тривалість: 1 серія: ~15:00 (цілком серій: 18)

Перелік серій

01. Sonnie's Edge / Край Соні
02. Three Robots / Три Роботи
03. The Witness / Свідок
04. Suits / Форс-мажор
05. Sucker of Souls / Висмоктувач душ
06. When the Yogurt Took Over / Коли до влади прийшов Йогурт
07. Beyond the Aquila Rift / За розломом Акіла
08. Good Hunting / Славне полювання
09. The Dump / Звалище
10. Shape-Shifters / Перевертні
11. Helping Hand / Рука допомоги
12. Fish Night / Рибна ніч
13. Lucky 13 / Щасливчик 13
14. Zima Blue / Зима Блакить
15. Blind Spot / Сліпа зона
16. Ice Age / Льодовиковий період
17. Alternate Histories / Альтернативні історії
18. The Secret War / Секретна війна
Якість: WEB-DLRip
Відео:
кодек: H.265 (HEVC)
розмір кадру: 1920 x 960
бітрейт: 6 404 кб/с
бітова глибина: 10 біт-Увага! Перед завантаженням переконайтесь, що ваш пристрій відтворення (та/або ПЗ) підтримує H.265 (HEVC)-Аудіо # 1:
мова: українська
озвучення: професійне дубльоване
кодек: E-AC-3 5.1
бітрейт: 640 кб/с
Аудіо # 2:
мова: українська
озвучення: багатоголосе закадрове | Студія "DniproFilm"
кодек: AC-3 5.1
бітрейт: 384 кб/с
Аудіо # 3:
мова: українська
озвучення: багатоголосе закадрове | Озвучка AdrianZP
кодек: AC-3 5.1
бітрейт: 448 кб/с
Аудіо # 4:
мова: англійська
озвучення: оригінал
кодек: AC-3 5.1
бітрейт: 384 кб/с
Субтитри # 1: (Forced from Netflix)
мова: українська
тип: програмні (м'які)
формат: *.srt
Субтитри # 2: (Forced by DniproFilm)
мова: українська
тип: програмні (м'які)
формат: *.srt
Субтитри # 3: (Full from Netflix)
мова: українська
тип: програмні (м'які)
формат: *.srt
Субтитри # 4: (1-6 Епізоди)
мова: українська (Full (Strugachka)),
тип: програмні (м'які)
формат: *.srt
Субтитри # 5: (1-11 епізоди)
мова: українська (Full (SubAutumn)),
тип: програмні (м'які)
формат: *.srt
Субтитри # 6-7: (Full, SDH)
мова: англійська
тип: програмні (м'які)
формат: *.srt-

2. Любов, смерть та роботи (Сезон 2) / Love, Death & Robots (Season 2) (2021) WEB-DLRip 1080p H.265 2xUkr/Eng | Sub Ukr/Eng

Любов, смерть та роботи (Сезон 2) / Love, Death & Robots (Season 2) (2021) WEB-DLRip 1080p H.265 2xUkr/Eng | Sub Ukr/Eng- -Жанр: анімація, трилер, жахи, фантастика, пригодницький
Країна: США

Кінокомпанія: Atoll Studio, Passion Animation Studios, Unit Image, Axis Animation, Blur Studio, Netflix
Режисер: Кевін Дан Вер Мейрен, Девід Ніколас, Лоран Ніколас, Роберт Веллі, Дженніфер Ю Нельсон, Леон Берелл, Домінік Бойдін, Ремі Козира, Максіме Луере, Тім Міллер
Актори: Ненсі Лінарі, Себастіан Крофт, Нолан Норт, Зіта Ганрот, Джо Демпсі, Семі Амбер, Майкл Бі Джордан та інші.
Сюжет:«Любов, смерть і роботи» — американський анімаційний телесеріал-антологія для дорослих. Цей серіал-антологія є переосмисленням та перезапуском анімаційного науково-фантастичного фільму «Важкий метал» 1981 року. Серіал спродюсували Девід Фінчер і Тім Міллер. Кожен епізод у антології був створений різними анімаційними студіямиТривалість: 1 серія: ~15:00 (цілком серій: 8)

Перелік серій

01. Automated Customer Service / Автоматизована служба підтримки
02. Ice / Крига
03. Pop Squad / Контроль популяції
04. Snow in the Desert / Сніг у пустелі
05. The Tall Grass / Висока трава
06. All Through the House / Ніч перед різдвом
07. Life Hutch / Укриття
08. The Drowned Giant / Утоплений велетень
Якість: WEB-DLRip
Автор ріпу: -Star-Lord-
Відео:
кодек: H.265 (HEVC)
розмір кадру: 1920 x 960
бітрейт: 3 531 кб/с
бітова глибина: 10 біт-Увага! Перед завантаженням переконайтесь, що ваш пристрій відтворення (та/або ПЗ) підтримує H.265 (HEVC)-Аудіо # 1:
мова: українська
озвучення: професійне дубльоване
кодек: E-AC-3 5.1
бітрейт: 640 кб/с
Аудіо # 2:
мова: українська
озвучення: багатоголосе закадрове | Студія "DniproFilm"
кодек: AC-3 5.1
бітрейт: 384 кб/с
Аудіо # 3:
мова: англійська
озвучення: оригінал
кодек: E-AC-3 5.1
бітрейт: 768 кб/с
Субтитри # 1-3: (Forced from Netflix, Forced by DniproFilm, Full from Netflix)
мова: українська
тип: програмні (м'які)
формат: *.srt
Субтитри # 4-5: (Full, SDH)
мова: англійська
тип: програмні (м'які)
формат: *.srt-

Світлини








3. Любов, смерть та роботи (Сезон 3) / Love, Death & Robots (Season 3) (2022) WEB-DLRip 1080p H.265 3xUkr/Eng | Sub Ukr/Eng

Любов, смерть та роботи (Сезон 3) / Love, Death & Robots (Season 3) (2022) WEB-DLRip 1080p H.265 3xUkr/Eng | Sub Ukr/Eng Жанр: анімація, жахи, трилер, фантастика, пригодницький, бойовик, екшн
Країна: США

Кінокомпанія: Netflix
Режисер: Віктор Малдонадо, Альфредо Торрес, Тім Міллер
Сюжет:Моторошні світи, дивні істоти та заплутані історії чекають на вас у третьому сезоні анімаційної антології Тіма Міллера й Девіда Фінчера, що здобула премію «Еммі».

Перелік серій

«Три роботи: стратегії виходу». Сезон 3, епізод 1.
Три роботи входять у постапокаліптичне місто… І влаштовують собі екскурсію по останніх спробах людства врятуватися.
«Погана поїздка». Сезон 3, епізод 2.
Випустити танапода! Член екіпажу корабля, що пливе океаном іншої планети, укладає угоду з ненажерливим монстром із глибин.
«Прекрасний пульс машини». Сезон 3, епізод 3.
Дослідницька місія на супутник Юпітера завершується катастрофою. Самотня вціліла вирушає в небезпечну, але пізнавальну подорож.
«Ніч мінімерців». Сезон 3, епізод 4.
Трохи нечестивий секс на кладовищі погано закінчується, адже спричиняє світове нашестя зомбі. Наймиліший апокаліпсис із можливих.
«Смертельний загін». Сезон 3, епізод 5.
Спецпідрозділи США зможуть нейтралізувати будь-яку загрозу — навіть кібернетичну машину для вбивства, яку створили в ЦРУ. Їхня секретна зброя? Почуття гумору.
«Рій». Сезон 3, епізод 6.
Двоє вчених-людей намагаються розгадати таємниці стародавньої інопланетної сутності, але незабаром дізнаються жахливу ціну виживання у ворожому світі.
«Щури Мейсона». Сезон 3, епізод 7.
Це справжній щуропокаліпсис! Фермер Мейсон дізнається, що проблеми зі шкідниками вийшли з-під контролю, коли ті починають відстрілюватися. Прокляття!
«Поховані у склепінчастій залі». Сезон 3, епізод 8.
Сучасне мистецтво війни проти стародавніх богів. Спецпризначенці під час звільнення заручників потрапляють у пастку у в’язниці, де живе вікове зло.
«Джібаро». Сезон 3, епізод 9.
Глухий лицар і міфічна сирена сплітаються в смертельному танці. Фатальна одержимість, сповнена крові, смертей і скарбів.
Якість: WEB-DLRip
Автор ріпу: -Star-Lord-
Відео:
кодек: H.265 (HEVC)
розмір кадру: 1920 x 960
бітрейт: 4 020 кб/с
бітова глибина: 10 біт-Увага! Перед завантаженням переконайтесь, що ваш пристрій відтворення (та/або ПЗ) підтримує H.265 (HEVC)-Аудіо # 1:
мова: українська
озвучення: професійне дубльоване
кодек: E-AC-3 5.1
бітрейт: 640 кб/с
Аудіо # 2:
мова: українська
озвучення: багатоголосе закадрове | Студія "DniproFilm" на замовлення
кодек: AC-3 5.1
бітрейт: 384 кб/с
Аудіо # 3:
мова: українська
озвучення: багатоголосе закадрове | BaibaKo.TV
кодек: AC-3 5.1
бітрейт: 384 кб/с
Аудіо # 4:
мова: англійська
озвучення: оригінал
кодек: E-AC-3 5.1
бітрейт: 768 кб/с
Субтитри # 1-2: (Forced, Full from Netflix)
мова: українська
тип: програмні (м'які)
формат: *.srt
Субтитри # 3-4: (Full, SDH)
мова: англійська
тип: програмні (м'які)
формат: *.srt-

Світлини









-Джерело: &
Особиста оцінка: 10 - без зайвих вагань рекомендую всім!

Anonymous

Опублікувати 21-Чер-2022 18:01

[Цитувати]

Корпорація змов (Сезон 1) / Inside Job (Season 1) (2021) WEBRip 720p Ukr/Eng | Sub Eng Жанр: анімація, комедія, фантастика, фентезі
Країна: США- -Кінокомпанія / телеканал: Netflix Animation
Режисер: Піт Мишелс, Алекс Гірш, Віталій Строкоус, Девід Окс
Актори/ролі озвучують: Ліззі Каплан, Крістіан Слейтер, Кларк Дюк, Тіша Кемпбелл-Мартін, Ендрю Дейлі, Кріс Діамантопулос, Джон ДіМаджіо, Боббі Лі, Бретт Ґелман та інші
Сюжет:Геніальна науковиця Рейган Рідлі працює у секретній урядовій корпорації «Когніто», задача якої — управляти теоріями змов. Тобто приховувати правду про, наприклад, рептилоїдів та генетичні експерименти від громадян та досліджувати явища, які варто приховати. Паралельно Рейган доведеться шукати порозуміння з власним батьком, терпіти нового колегу Бретта та довідатися про конспірологічні таємниці, які є таємничими навіть для корпорації «Когніто».Тривалість: 1 серія: ~ 28 хв. (цілком серій: 10)

Перелік серій

01. Unpresidented
02. Clone Gunman
03. Blue Bloods
04. Sex Machina
05. The Brettfast Club
06. My Big Flat Earth Wedding
07. Ghost Protocol
08. Buzzkill
09. Mole Hunt
10. Inside Reagan
Якість: WEBRip
Відео:
кодек: H.264
розмір кадру: 1280x720
бітрейт: ~4000 кб/с
Аудіо # 1:
мова: українська
переклад: багатоголосий закадровий | DniproFilm
кодек: AC3 5.1
бітрейт: 640 кб/с
Аудіо # 2:
мова: англійська
переклад: оригінал
кодек: AC3 5.1
бітрейт: 640 кб/с
Субтитри # 1:
мова: українська
тип: програмні (м'які)
формат: *.srt (написи)
Субтитри # 2:
мова: англійська
тип: програмні
формат: *.srt (Full)

Скріншоти




Джерело озвучення: DniproFilm

Anonymous

Опублікувати 21-Чер-2022 18:01

[Цитувати]

Корпорація змов (Сезон 1) / Inside Job (Season 1) (2021) WEBRip 1080p Ukr/Eng | Sub Eng Жанр: анімація, комедія, фантастика, фентезі
Країна: США- -Кінокомпанія / телеканал: Netflix Animation
Режисер: Піт Мишелс, Алекс Гірш, Віталій Строкоус, Девід Окс
Актори/ролі озвучують: Ліззі Каплан, Крістіан Слейтер, Кларк Дюк, Тіша Кемпбелл-Мартін, Ендрю Дейлі, Кріс Діамантопулос, Джон ДіМаджіо, Боббі Лі, Бретт Ґелман та інші
Сюжет:Геніальна науковиця Рейган Рідлі працює у секретній урядовій корпорації «Когніто», задача якої — управляти теоріями змов. Тобто приховувати правду про, наприклад, рептилоїдів та генетичні експерименти від громадян та досліджувати явища, які варто приховати. Паралельно Рейган доведеться шукати порозуміння з власним батьком, терпіти нового колегу Бретта та довідатися про конспірологічні таємниці, які є таємничими навіть для корпорації «Когніто».Тривалість: 1 серія: ~ 28 хв. (цілком серій: 10)

Перелік серій

01. Unpresidented
02. Clone Gunman
03. Blue Bloods
04. Sex Machina
05. The Brettfast Club
06. My Big Flat Earth Wedding
07. Ghost Protocol
08. Buzzkill
09. Mole Hunt
10. Inside Reagan
Якість: WEBRip
Відео:
кодек: H.264
розмір кадру: 1920x1080
бітрейт: ~7000 кб/с
Аудіо # 1:
мова: українська
переклад: багатоголосий закадровий | DniproFilm
кодек: AC3 5.1
бітрейт: 640 кб/с
Аудіо # 2:
мова: англійська
переклад: оригінал
кодек: AC3 5.1
бітрейт: 640 кб/с
Субтитри # 1:
мова: українська
тип: програмні (м'які)
формат: *.srt (написи)
Субтитри # 2:
мова: англійська
тип: програмні
формат: *.srt (Full)

Скріншоти




Джерело озвучення: DniproFilm

Anonymous

Опублікувати 16-Чер-2022 08:55

[Цитувати]

Чіп і Дейл Бурундучки рятівнички (65 серій з 65) / Chip 'n' Dale Rescue Rangers (1989) BDRemux 1080p Ukr/Eng | Sub Eng Жанр: Анімація, пригоди, комедія
Країна: США

Кінокомпанія: Walt Disney Television Animation
Режисер: Джон Кімболл, Боб Дзамбоні, Алан Заслов
Актори: Тресс МекНілл, Корі Биртон, Джім Каммінс ,Пітер Колен,та ін.
Зміст:
Мультсеріал студії Волта Діснея. У ньому класичні діснеївські персонажі — бурундуки Чіп та Дейл, разом з трьома своїми новими друзями: Пружинкою (англ. Gadget Hackwrench), Сирогризом (англ. Monty, Monterey Jack) та Ґедзиком (англ. Zipper), виступають у ролі детективів: розслідують та розкривають різноманітні злочини.
Тривалість: 1 серія: 23:00 (цілком серій: 65)
Якість: BDRemux 1080p
Відео:
кодек: H.264
розмір кадру: 1920 х 1080
бітрейт: 21.6 Mбіт/с
глибина: 8 біт
Аудіо # 1:
мова:
переклад: професійний дубльований | "1+1"
кодек: ac3 2.0
бітрейт: 192 кб/с
Аудіо # 2:
мова:
переклад: оригінал
кодек: ac3 2.0
бітрейт: 320 Кбит/сек
Субтитри: (SDH)
мова:
тип: програмні (м'які)
формат: *.srt

Перелік серій:

01. Rescue Rangers to the Rescue (1)
02. Rescue Rangers to the Rescue (2)
03. Rescue Rangers to the Rescue (3)
04. Rescue Rangers to the Rescue (4)
05. Rescue Rangers to the Rescue (5)
06. Piratsy Under the Seas
07. Catteries Not Included
08. Dale Beside Himself
09. Flash, the Wonder Dog
10. Out to Launch
11. Kiwi's Big Adventure
12. Adventures in Squirrelsitting
13. Pound of the Baskervilles
14. Risky Beesness
15. Three Men and a Booby
16. The Carpetsnaggers
17. Bearing Up Baby
18. Parental Discretion Retired
19. A Lad in a Lamp
20. The Luck Stops Here
21. Battle of the Bulge
22. Ghost of a Chance
23. An Elephant Never Suspects
24. Fake Me to Your Leader
25. Last Train to Cashville
26. A Case of Stage Blight
27. The Case of the Cola Cult
28. Throw Mummy from the Train
29. A Wolf in Cheap Clothing
30. Robocat
31. Does Pavlov Ring a Bell
32. Prehysterical Pet
33. A Creep in the Deep
34. Normie's Science Project
35. Seer No Evil
36. Chipwrecked Shipmunks
37. When Mice Were Men
38. Chocolate Chips
39. The Last Leprechaun
40. Weather or Not
41. One-Upsman-Chip
42. Shell Shocked
43. Love is a Many Splintered Thing
44. Song of the Night 'n Dale
45. Double 'O Chipmunk
46. Gadget Goes Hawaiian
47. It's a Bird, It's Insane, It's Dale!
48. Short Order Crooks
49. Mind Your Cheese and Q's
50. Out of Scale
51. Dirty Rotten Diapers
52. Good Times, Bat Times
53. Pie in the Sky
54. Le Purrfect Crime
55. When You Fish Upon a Star
56. Rest Home Rangers
57. A Lean on the Property
58. The Pied Piper Power Play
59. Gorilla My Dreams
60. The S.S. Drainpipe
61. Zipper Come Home
62. Puffed Rangers
63. A Fly in the Ointment
64. A Chorus Crime
65. They Shoot Dogs, Don't They?
Джерело:
Особиста оцінка: 10 - моїй подрузі не сподобалося
Дуже дякую за сирі доріжки пану : xslim

Anonymous

Опублікувати 16-Чер-2022 08:55

[Цитувати]

Барбі: Пригоди в будинку мрії (Сезон 1-3) / Barbie Dreamhouse Adventures (Season 1-3) (2018-2019) WEBRip 1080p Ukr/Eng | sub Eng Жанр: анімація, комедія, сімейний
Країна: США, Канада

Кіностудія / кінокомпанія: Mattel Creations, Rainmaker Entertainment
Режисери: Патріс Берубе (Patrice Berube), Конрад Хельтен (Conrad Helten), Ларрі Андерсон (Larry Anderson), Сол Блінкофф (Saul Blinkoff)...
Актори англомовної версії: Америка Янг (America Young), Кірстен Дей (Kirsten Day), Кессіді Набер (Cassidy Naber), Кассандра Лі Морріс (Cassandra Lee Morris), Ліза Фьюсон (Lisa Fuson)...
Сюжет:В улюбленої та найкрасивішої Барбі кращі в світі подруги, найкрасивіший одяг, а будинок… це справжній будинок мрії! Усміхнена блондинка живе не тільки зоряним життям, зустрічаючись з красунчиком Кеном, відвідуючи бутики й дорогі ресторани. Барбі любить допомагати людям і завжди готова прийти на допомогу. За це її люблять і цінують оточуючі. Вона чудова господиня, з задоволенням готує та пригощає рідних і друзів. Звісно, вона користується тільки кращим посудом і дорогою технікою. Красуня обожнює чепуритися й виглядати надзвичайно. Незважаючи на стереотипи, що склали про блондинок, Барбі з легкістю підтримає будь-яку світську бесіду. Вона багато читає, подорожує й займається всім, чим забажає. Можливо, у Барбі ідеальне життя, але ж лялька всього досягла наполегливою працею й своєю цілеспрямованістю, завдяки яким зуміла завоювати весь світ!

Перелік серій:

Сезон 1:
01.Welcome to the Dreamhouse!
02.Clubhouse (Remix)
03.Nobody's Cupcake
04.The Great Pioneer Adventure
05.Baby Sister Babysitter
06.Road Trip
07.Picture Perfect Cake
08.The Roof Fairy
Сезон 2:
01.Balancing Act
02.Life Can Be a Dream
03.Trey Is for Horses
04.A Dreamhouse Puppy Tale
05.Time Will Tell
06.Putts for Pups
07.Pied Pupper
08.A Day at the Beach
09.A Delicate Situation
Сезон 3:
01.Virtually Famous
02.All Dogs Go to the Beach
03.The Ballad of Windy Willows
04.Room Swap
05.Getaway and Got Away
06.Totally Spying
07.Barbie Roberts-Undercover Mermaid.Part 1
08.Barbie Roberts-Undercover Mermaid.Part 2
09.A Dog's Day in Court
Тривалість: ~ 00:23:40
Якість: WEBRip 1080p
Відео:
кодек: H.264
розмір кадру: 1920 х 1080
бітрейт: ~2471-2811 кб/с
частота кадрів: 23.976 к/с (fps)
Аудіо #1:
мова: українська
переклад: багатоголосий закадровий
кодек: AC3 2.0 (s01e01-04; s02; s03); AAC 2.0 (s01e05-08)
бітрейт: 192 кб/с
запис звуку з каналу: ПлюсПлюс
Аудіо #2:
мова: англійська
переклад: оригінал
кодек: E-AC3 5.1 (решта серій); AC3 5.1 (s02e1-2; s02e05; s02e07-9; s03e01-02; s03e04-06; s03e09); AAC 2.0 (s01e05-08)
бітрейт: 384 кб/с (у E-AC3); 448 кб/с (s02e01); 128 кб/с (у AAC)
примітка: відсутня у 3 і 4 серіях 1-го сезону
Субтитри #1:
мова: англійська
тип: програмні (м'які)
формат: *.srt
примітка: лише у 2-3 сезонах, крім s03e05

Media info:

General
Unique ID : 199040377441483268026695881646277263660 (0x95BDC8452F2FF6028727884A56BA012C)
Format : Matroska
Format version : Version 4
File size : 733 MiB
Duration : 21 min 57 s
Overall bit rate : 4 669 kb/s
Movie name : Barbie Dreamhouse Adventures_s02e04_-_A Dreamhouse Puppy Tale [ukr_eng, sub eng] WEBRip 1080p [Hurtom]
Encoded date : UTC 2022-06-09 17:15:23
Writing application : mkvmerge v68.0.0 ('The Curtain') 64-bit
Writing library : libebml v1.4.2 + libmatroska v1.6.4
Cover : Yes
Attachments : cover.jpg
Video
ID : 1
Format : AVC
Format/Info : Advanced Video Codec
Format profile :
Format settings : CABAC / 3 Ref Frames
Format settings, CABAC : Yes
Format settings, Reference : 3 frames
Codec ID : V_MPEG4/ISO/AVC
Duration : 21 min 57 s
Bit rate : 4 090 kb/s
Width : 1 920 pixels
Height : 1 080 pixels
Display aspect ratio : 16:9
Frame rate mode : Constant
Frame rate : 23.976 (24000/1001) FPS
Color space : YUV
Chroma subsampling : 4:2:0
Bit depth : 8 bits
Scan type : Progressive
Bits/(Pixel*Frame) : 0.082
Stream size : 643 MiB (88%)
Title : Barbie Dreamhouse Adventures_s02e04_-_A Dreamhouse Puppy Tale [ukr_eng, sub eng] WEBRip 1080p [Hurtom]
Language : English
Default : Yes
Forced : No
Audio #1
ID : 2
Format : AC-3
Format/Info : Audio Coding 3
Commercial name : Dolby Digital
Codec ID : A_AC3
Duration : 21 min 57 s
Bit rate mode : Constant
Bit rate : 192 kb/s
Channel(s) : 2 channels
Channel layout : L R
Sampling rate : 48.0 kHz
Frame rate : 31.250 FPS (1536 SPF)
Compression mode : Lossy
Stream size : 30.2 MiB (4%)
Title : Українська доріжка
Language : Ukrainian
Service kind : Complete Main
Default : Yes
Forced : No
Audio #2
ID : 3
Format : E-AC-3
Format/Info : Enhanced AC-3
Commercial name : Dolby Digital Plus
Codec ID : A_EAC3
Duration : 21 min 57 s
Bit rate mode : Constant
Bit rate : 384 kb/s
Channel(s) : 6 channels
Channel layout : L R C LFE Ls Rs
Sampling rate : 48.0 kHz
Frame rate : 31.250 FPS (1536 SPF)
Compression mode : Lossy
Stream size : 60.3 MiB (8%)
Title : Оригінальна доріжка
Language : English
Service kind : Complete Main
Default : No
Forced : No
Text
ID : 4
Format : UTF-8
Codec ID : S_TEXT/UTF8
Codec ID/Info : UTF-8 Plain Text
Duration : 21 min 27 s
Bit rate : 60 b/s
Count of elements : 376
Stream size : 9.54 KiB (0%)
Title : Англійські субтитри
Language : English
Default : No
Forced : No

Скріншоти:






Семпл:

Джерело 1_______Джерело 2_______Джерело 3_______Джерело 4_______Джерело 5_______Джерело 6_______Джерело 7
У випадку, якщо з усіх джерел семпл видалять, прохання повідомити мені у ПРИВАТ
Подяка:1. Пану sergiyko.5 за створення релізуРеліз створено: за підтримки BMK12

Anonymous

Опублікувати 16-Чер-2022 08:55

[Цитувати]

Табір Лазло (Сезон 2, серії 21-24; Сезон 3, серії 6-13) / Camp Lazlo (Season 2, episodes 21-24; Season 3, episodes 6-13) (2005-2008) WEB-DL 1080p H.265 Ukr/Eng | sub Eng Жанр: анімація, комедія
Країна: США

Кінокомпанія: Cartoon Network Studios
Режисер: Рассел Калабразе
Актори: Карлос Алазракуї, Джефф Беннетт, Даґ Лоуренс, Том Кенні, Стів Літтл, Джоді Бенсон, Джилл Толлєй, Тара Стронґ
Сюжет:Скаути в цьому селищі звикли проводити літні канікули спокійно й за правилами. Але одного чудового дня їхній табір перевертається з ніг на голову, тому, що приїхав Лазло!Тривалість: 1 серія: ~12 хв. (цілком серій: 12)

Перелік серій

21. Camp Samson (Табірний Самсон)
22. Beany Weenies (Веселе тренування)
23. There's No Place Like Gnome (Ніде так не добре як з гномом)
24. Hot Spring Fever (Джерельна лихоманка)

Сезон 3

6. Where's Clam? (Де Клем?)
7. Bowling for Dinosaurs (Боулінг з динозаврами)
8. Squirrel Seats (Де сидять білки)
9. Creepy Crawly Campy (Страх у таборі)
10. Sweet Dream Baby (Солодких снів)
11. Dirt Nappers (Брудні серветки)
12. Spacemates (Споріднені душі)
13. Temper Tee Pee (Храм спокою)
Якість: WEB-DL 1080p
Відео:
кодек: H.265 (HEVC)
розмір кадру: 1920 х 1080
бітрейт: 2705 кб/с
бітова глибина: 10 біт
Увага! Перед завантаженням переконайтесь, що ваш пристрій відтворення (та/або ПЗ) підтримує H.265 (HEVC)
Аудіо # 1:
мова: українська
переклад: багатоголосий закадровий
кодек: AC3 2.0
бітрейт: 192 кб/с
Аудіо # 2:
мова: англійська
переклад: оригінал
кодек: E-AC-3
бітрейт: 224 кб/с
Субтитри: [окрім 3x11]
мова: англійська
тип: програмні (м'які)
формат: *.ttxt

Скріншоти



MediaInfo

General
Unique ID : 204776180751056274786956033985433812986 (0x9A0E75350A283E7F998C7BA53743BFFA)
Complete name : D:\Camp Lazlo (2005-2008) Seasons 2-3 [Ukr.Eng] Sub [Eng] WEB-DL 1080p [Hurtom]\Season 3 (2006-2007)\[3x06] Where's Clam [Ukr.Eng] Sub [Eng] WEB-DL 1080p [Hurtom].mkv
Format : Matroska
Format version : Version 2
File size : 277 MiB
Duration : 12 min 10 s
Overall bit rate : 3 185 kb/s
Encoded date : UTC 2022-06-05 12:10:23
Writing application : mkvmerge v4.1.1 ('Bouncin' Back') збірка від Jul 3 2010 22:54:08
Writing library : libebml v1.0.0 + libmatroska v1.0.0
Video
ID : 1
Format : HEVC
Format/Info : High Efficiency Video Coding
Format profile : Main @Main
Codec ID : V_MPEGH/ISO/HEVC
Duration : 12 min 10 s
Bit rate : 2 705 kb/s
Width : 1 920 pixels
Height : 1 080 pixels
Display aspect ratio : 16:9
Frame rate mode : Constant
Frame rate : 25.000 FPS
Color space : YUV
Chroma subsampling : 4:2:0 (Type 0)
Bit depth : 10 bits
Bits/(Pixel*Frame) : 0.052
Stream size : 236 MiB (85%)
Writing library : x265 3.5+1-f0c1022b6:[Windows][GCC 10.2.0][64 bit] 10bit
Encoding settings : cpuid=1111039 / frame-threads=4 / numa-pools=16 / wpp / no-pmode / no-pme / no-psnr / no-ssim / log-level=2 / input-csp=1 / input-res=1920x1080 / interlace=0 / total-frames=0 / level-idc=0 / high-tier=1 / uhd-bd=0 / ref=4 / no-allow-non-conformance / no-repeat-headers / annexb / no-aud / no-hrd / info / hash=0 / no-temporal-layers / open-gop / min-keyint=25 / keyint=250 / gop-lookahead=0 / bframes=4 / b-adapt=2 / b-pyramid / bframe-bias=0 / rc-lookahead=25 / lookahead-slices=4 / scenecut=40 / hist-scenecut=0 / radl=0 / no-splice / no-intra-refresh / ctu=64 / min-cu-size=8 / no-rect / no-amp / max-tu-size=32 / tu-inter-depth=1 / tu-intra-depth=1 / limit-tu=0 / rdoq-level=2 / dynamic-rd=0.00 / no-ssim-rd / signhide / no-tskip / nr-intra=0 / nr-inter=0 / no-constrained-intra / no-strong-intra-smoothing / max-merge=3 / limit-refs=3 / limit-modes / me=3 / subme=3 / merange=57 / temporal-mvp / no-frame-dup / no-hme / weightp / no-weightb / no-analyze-src-pics / deblock=0:0 / sao / no-sao-non-deblock / rd=4 / selective-sao=4 / no-early-skip / rskip / no-fast-intra / no-tskip-fast / no-cu-lossless / no-b-intra / no-splitrd-skip / rdpenalty=0 / psy-rd=2.00 / psy-rdoq=1.00 / no-rd-refine / no-lossless / cbqpoffs=0 / crqpoffs=0 / rc=crf / crf=22.0 / qcomp=0.60 / qpstep=4 / stats-write=0 / stats-read=0 / ipratio=1.40 / pbratio=1.30 / aq-mode=1 / aq-strength=1.00 / cutree / zone-count=0 / no-strict-cbr / qg-size=32 / no-rc-grain / qpmax=69 / qpmin=0 / no-const-vbv / sar=1 / overscan=0 / videoformat=5 / range=0 / colorprim=1 / transfer=1 / colormatrix=1 / chromaloc=1 / chromaloc-top=0 / chromaloc-bottom=0 / display-window=0 / cll=0,0 / min-luma=0 / max-luma=1023 / log2-max-poc-lsb=8 / vui-timing-info / vui-hrd-info / slices=1 / no-opt-qp-pps / no-opt-ref-list-length-pps / no-multi-pass-opt-rps / scenecut-bias=0.05 / hist-threshold=0.03 / no-opt-cu-delta-qp / no-aq-motion / no-hdr10 / no-hdr10-opt / no-dhdr10-opt / no-idr-recovery-sei / analysis-reuse-level=0 / analysis-save-reuse-level=0 / analysis-load-reuse-level=0 / scale-factor=0 / refine-intra=0 / refine-inter=0 / refine-mv=1 / refine-ctu-distortion=0 / no-limit-sao / ctu-info=0 / no-lowpass-dct / refine-analysis-type=0 / copy-pic=1 / max-ausize-factor=1.0 / no-dynamic-refine / no-single-sei / no-hevc-aq / no-svt / no-field / qp-adaptation-range=1.00 / scenecut-aware-qp=0conformance-window-offsets / right=0 / bottom=0 / decoder-max-rate=0 / no-vbv-live-multi-pass
Default : Yes
Forced : No
Color range : Limited
Color primaries : BT.709
Transfer characteristics : BT.709
Matrix coefficients : BT.709
Audio #1
ID : 2
Format : AC-3
Format/Info : Audio Coding 3
Commercial name : Dolby Digital
Muxing mode : Header stripping
Codec ID : A_AC3
Duration : 12 min 10 s
Bit rate mode : Constant
Bit rate : 192 kb/s
Channel(s) : 2 channels
Channel layout : L R
Sampling rate : 48.0 kHz
Frame rate : 31.250 FPS (1536 SPF)
Compression mode : Lossy
Stream size : 16.7 MiB (6%)
Title : Багатоголосий закадровий [Новий Канал]
Language : Ukrainian
Service kind : Complete Main
Default : Yes
Forced : No
Audio #2
ID : 3
Format : E-AC-3
Format/Info : Enhanced AC-3
Commercial name : Dolby Digital Plus
Muxing mode : Header stripping
Codec ID : A_EAC3
Duration : 12 min 10 s
Bit rate mode : Constant
Bit rate : 224 kb/s
Channel(s) : 2 channels
Channel layout : L R
Sampling rate : 48.0 kHz
Frame rate : 31.250 FPS (1536 SPF)
Compression mode : Lossy
Delay relative to video : 32 ms
Stream size : 19.5 MiB (7%)
Title : Original
Language : English
Service kind : Complete Main
Default : No
Forced : No
Statistics Tags Issue : mkvmerge v67.0.0 ('Under Stars') 64-bit 2022-05-14 02:53:45 / mkvmerge v4.1.1 ('Bouncin' Back') збірка від Jul 3 2010 22:54:08 2022-06-05 12:10:23
FromStats_BitRate : 224000
FromStats_Duration : 00:12:10.464000000
FromStats_FrameCount : 22827
FromStats_StreamSize : 20452992
Text
ID : 4
Format : UTF-8
Codec ID : S_TEXT/UTF8
Codec ID/Info : UTF-8 Plain Text
Title : Original
Language : English
Default : No
Forced : No
Джерело:
Запис звуку: Zheka081292
Зведення та оформлення релізу: Харизма Production

Anonymous

Опублікувати 16-Чер-2022 08:54

[Цитувати]

Пожежник Сем (Сезон 10) / Fireman Sam (Season 10) (2016) HDTVRip 1080i Жанр: анімація, сімейний, дитячий
Країна: Великобританія

Кінокомпанія: Bumper Films
Режисер: Гері Ендрюс / Gary Andrews
Актори: Стівен Кінман / Steven Kynman — Сем, Елвіс, Норман, Дерек, Чарлі та Джеррі; Лі Девід Карлінг / David Carling — офіцер станції Стіл, головний пожежний Бойс, Тревор, Том і Майк; Тегвен Такер / Tegwen Tucker у ролі Пенні, Сари, Бронвін та місіс Чен ; Джон Хаслер / John Hasler — Джеймс і Арнольд ; Су Дуглас / Su Douglas у ролі Діліс, Менді, Хелен та Лілі; Алекс Лоу — Бен, Джо та професор Піклз; Іфан Хью Дафідд / Ifan Huw Dafydd — Гарет ; Найджел Вітмі / Nigel Whitmey — Лось; Джо Вайатт / Jo Wyatt у ролі Ханни та Ліззі; Гаррієт Кершоу / Harriet Kershaw в ролі Еллі та Белли
Сюжет:В новому сезоні пожежник Сем і його команда повернулися для нових захоплюючих порятунків. Крім нової високотехнологічної пожежної станції в десятому сезоні з'явився Фенікс, новий автомобіль для порятунку тварин.
Тривалість: 1 серія: ~10:00 (цілком серій: 25)

Перелік серій

01. Кінь-втікач / Runaway Horse
02. День народження Сема / Sam's Birthday
03. Замки й королі / Castles and Kings
04. Гармидер з піцою / Pizza Pandemonium
05. Собачий день / Dog Day Disaster
06. Клопіт з автобусом / Bus Trouble
07. Шпигунські ігри / Spy Games
08. Лис-утікач / Fox on the Run
09. Переполох на вечірці / The Great Party Panic
10. Розрив / The Break-Up
11. Вогняний футбол / Fiery Football
12. Загублені в печерах / Lost in the Caves
13. Будь у формі / Shape Up and Shine
14. Космічний паротяг / Space Train
15. Плетений ведмідь / Wicker Bear
16. Замки у повітрі / Castles in the Air
17. Розталий хокей / Ice Hockey Meltdown
18. Човнику пливи / Float Your Boat
19. Жаб'яча фантазія / Froggy Fantasy
20. Срібно-білий сніг / Dashing Through the Snow
21. Скарб Понтіпенді Піта / The Treasure of Pontypandy Pete
22. Норман у циліндрі / Big Top Norman
23. Веслуй! / Paddle On
24. День пінгвіна / Day of the Penguin
25. Понтіпенді у парку / Pontypandy in the Park
Якість: HDTVRip
Відео:
кодек: H.264
розмір кадру: 1920 х 1080
бітрейт: ~3726 кб/с
Аудіо:
мова: українська
переклад: багатоголосий закадровий
кодек: MP3
бітрейт: 192 кб/с
Джерело озвучення:

MediaInfo

Загальна інформація
Унікальний ID : 311595336513659066237780012923025627737 (0xEA6B143398D34C16CBC2B4D8A4FC1A59)
Повна назва : D:\cartoons\Fireman.Sam.s10(2016)1080i.HDTVRip.ukr\Fireman.Sam.s10e01.Runaway.Horse.HDTVRip.ukr.mkv
Формат : Matroska
Версія формату : Version 4
Розмір файлу : 286 МіБ
Тривалість : 10 хв. 0 сек.
Загальний бітрейт : 3 997 Кбіт/сек
Програма кодування : Lavf58.29.100
Бібліотека кодування : Lavf58.29.100
ErrorDetectionType : Per level 1
Відео
Ідентифікатор : 1
Формат : AVC
Формат/Відомості : Advanced Video Codec
Профіль формату :
Налаштування формату : CABAC / 4 Ref Frames
Налаштування формату, CABAC : Так
Налаштування формату, RefFrames : 4 кадр(-и,-ів)
Ідентифікатор кодеку : V_MPEG4/ISO/AVC
Тривалість : 9 хв. 59 сек.
Бітрейт : 3 726 Кбіт/сек
Ширина кадру : 1 920 пікс.
Висота кадру : 1 080 пікс.
Співвідношення сторін екрану : 16:9
Режим частоти кадрів : Постійний
Частота кадрів : 25.000 кадр/сек
Стандарт : Component
Простір кольору : YUV
Субдискретизація хроматичності : 4:2:0
Бітова глибина : 8 біт
Тип сканування : Черезрядковий
Scan type, store method : Separated fields
Послідовність сканування : Непарні - перші
Біт/(Пікселі*Кадри) : 0.072
Розмір потоку : 266 МіБ (93%)
Default : Так
Forced : Ні
Color range : Limited
Основні кольори : BT.709
Характеристики трансферу : BT.709
Матричні коефіцієнти : BT.709
Аудіо
Ідентифікатор : 2
Формат : MPEG Audio
Версія формату : Version 1
Профіль формату : Layer 3
Ідентифікатор кодеку : A_MPEG/L3
Ідентифікатор кодеку/Підказка : MP3
Тривалість : 10 хв. 0 сек.
Режим розрахунку бітрейта : Постійний (CBR)
Бітрейт : 192 Кбіт/сек
Кількість каналів : 2 канал(-и,-ів)
Частота дискретизації : 44.1 кГц
Тип стиснення : Із втратами
Затримка відносно відео : -200 мс
Розмір потоку : 13.7 МіБ (5%)
Мова : Ukrainian
Default : Так
Forced : Ні

Скріншоти










Джерело:

Особиста оцінка: 8 - мені сподобалося

Anonymous

Опублікувати 16-Чер-2022 08:54

[Цитувати]

Кафе Баттербін (Сезон 1, 7 серій з 39) / Butterbean's Cafe (Season 1) (2018-2019) WEB-DL 1080p Ukr/Eng Жанр: анімація, фентезі, сімейний
Країна: США, Канада, Ірландія

Кіностудія / кінокомпанія: Brown Bag Films
Режисери: Деміен О'Коннор (Damien O'Connor), Річард Кін (Richard Keane), Деклан Дойл (Declan Doyle), Даррен Тейлор (Darren Taylor)
Актори англомовної версії: Маргарет Ін Дрейк (Margaret Ying Drake), Кода Гурсой (Koda Gursoy), Наханні Мітчелл (Nahanni Mitchell), Габріелла Піццоло (Gabriella Pizzolo), Алісія Райнер (Alysia Reiner)...
Сюжет:У чарівному місті Падлбрук живе фея Баттербін і її друзі – Поппі, Деззл, Джаспер і Крикет. Вони відкрили власне кафе, і тепер кожен день готують щось особливе і неймовірно смачне.
Фея Баттербін – господиня кафе-пекарні. Разом зі своїми друзями і молодшою сестрою вона готує корисні і смачні частування для місцевих жителів. А яке це кафе красиве! Найяскравіший інтер'єр і незвичайний декор радують око кожного відвідувача. Але головний секрет цього місця – чарівні боби!

Перелік серій:

Сезон 1:
01.The Grand Opening!
02.Grandma Nana Banana Bread - Lots and Lots of Lemons!
03.Friendship Pretzels! - The Wild Tooth Chase
04.Dazzle's Cake-tastrophe! - Cricket's First Menu!
05.The Sweetest Ride - A Grilled Cheese for the Big Cheese!
06.Wedding Cake Switcheroo - Fairy Berry Parfait!
18.Fluttercakes! - The Perfect Picnic!
Тривалість: ~ 00:23:40
Якість: WEB-DL 1080p
Відео:
кодек: H.264
розмір кадру: 1920 х 1080
бітрейт: ~2471-2811 кб/с
частота кадрів: 23.976 к/с (fps)
Аудіо #1:
мова: українська
переклад: багатоголосий закадровий
кодек: AC3 2.0
бітрейт: 192 кб/с
запис звуку з каналу: Піксель
Аудіо #2:
мова: англійська
переклад: оригінал
кодек: AAC 2.0
бітрейт: 128 кб/с

Media info:

General
Unique ID : 178758496289485014047191003124783612137 (0x867BA2532E9256B1D2BFC1AE50D380E9)
Format : Matroska
Format version : Version 4
File size : 508 MiB
Duration : 22 min 40 s
Overall bit rate mode : Variable
Overall bit rate : 3 133 kb/s
Movie name : Butterbean's Cafe_s01e03_-_Friendship Pretzels!_The Wild Tooth Chase [ukr_eng] WEB-DL 1080p [Hurtom]
Encoded date : UTC 2022-06-08 15:21:49
Writing application : mkvmerge v68.0.0 ('The Curtain') 64-bit
Writing library : libebml v1.4.2 + libmatroska v1.6.4
Cover : Yes
Attachments : cover.jpg
Video
ID : 1
Format : AVC
Format/Info : Advanced Video Codec
Format profile :
Format settings : CABAC / 3 Ref Frames
Format settings, CABAC : Yes
Format settings, Reference : 3 frames
Codec ID : V_MPEG4/ISO/AVC
Duration : 22 min 40 s
Bit rate mode : Variable
Bit rate : 2 811 kb/s
Maximum bit rate : 5 495 kb/s
Width : 1 920 pixels
Height : 1 080 pixels
Display aspect ratio : 16:9
Frame rate mode : Constant
Frame rate : 23.976 (24000/1001) FPS
Standard : Component
Color space : YUV
Chroma subsampling : 4:2:0
Bit depth : 8 bits
Scan type : Progressive
Bits/(Pixel*Frame) : 0.057
Stream size : 456 MiB (90%)
Title : Butterbean's Cafe_s01e03_-_Friendship Pretzels!_The Wild Tooth Chase [ukr_eng] WEB-DL 1080p [Hurtom]
Language : English
Default : Yes
Forced : No
Color range : Limited
Audio #1
ID : 2
Format : AC-3
Format/Info : Audio Coding 3
Commercial name : Dolby Digital
Codec ID : A_AC3
Duration : 22 min 40 s
Bit rate mode : Constant
Bit rate : 192 kb/s
Channel(s) : 2 channels
Channel layout : L R
Sampling rate : 48.0 kHz
Frame rate : 31.250 FPS (1536 SPF)
Compression mode : Lossy
Stream size : 31.1 MiB (6%)
Title : Українська доріжка
Language : Ukrainian
Service kind : Complete Main
Default : Yes
Forced : No
Audio #2
ID : 3
Format : AAC LC SBR
Format/Info : Advanced Audio Codec Low Complexity with Spectral Band Replication
Commercial name : HE-AAC
Format settings : Explicit
Codec ID : A_AAC-2
Duration : 22 min 40 s
Bit rate : 128 kb/s
Channel(s) : 2 channels
Channel layout : L R
Sampling rate : 48.0 kHz
Frame rate : 23.438 FPS (2048 SPF)
Compression mode : Lossy
Stream size : 20.8 MiB (4%)
Title : Оригінальна доріжка
Language : English
Default : No
Forced : No

Скріншоти:






Семпл:

Джерело 1_______Джерело 2_______Джерело 3_______Джерело 4_______Джерело 5_______Джерело 6_______Джерело 7
У випадку, якщо з усіх джерел семпл видалять, прохання повідомити мені у ПРИВАТ
Подяка:1. Пану urij546724 за запис звуку.Реліз створено: за підтримки BMK12

Anonymous

Опублікувати 16-Чер-2022 08:54

[Цитувати]

Зак Шторм (Сезон 1) / Zak Storm (Season 1) (2017-2018) WEB-DL 1080p Ukr/Eng | Sub Eng Жанр: анімація, пригодницький, дитячий, фантастика
Країна: США, Франція, Південна Корея, Індонезія

Кінокомпанія: ZAG Animation, Method Animation, SAMG Animation, MNC Animation, Man of Action
Режисер: Філіп Гайенн
Актори: Майкл Джонстон, Крістін Марі Кабанос, Кріс Сміт, Макс Міттельман, Реба Бур, Кайл Хеберт, Кіт Сільверстайн, Метью Мерсер, Джессіка Джі-Джордж
Сюжет:Мультсеріал про дивовижні пригоди юного підлітка-серфера Зака, дуже впертого і заповзятливого хлопця, який потрапив у Бермудський трикутник, готуючись до змагання з серфінгу. Опинившись у магічному місці, що зберігає безліч таємниць, Зак заволодів мечем, що трансформував його в героя, здатного протистояти будь-яким атакам і перешкоджати будь-якій небезпеці, що з'являється у просторі Семи Морів, всередині Бермудського трикутника. Зак бере на себе керівництво екіпажем судна. Разом з командою, що складається з балакучого меча, першого помічника — принцеси Атланти Сісі, тугодума-вікінга з важким кулаком Кроґара, нервового космічного мандрівника Карамби і маленького веселуна-полтергейста Кловіса, юний серфер вирушає на пошуки пригод, битиметься із лиходієм Черепанем і постарається вибратися з Бермудського трикутника. Але для того, щоб вийти з Трикутника, потрібно відкрити замки семи морів. Легенда говорить, що потрібно в шести морях: Сіно, Зайта, Беру, Айрії, Блейза та Дезера. Саме тоді відшукається сьомий орієнтир — моря Вапіра. Одначе не все так просто! Орієнтири охороняють страховиська, які любою ціною не дозволять відкрити орієнтири. Чарівним мечем і ключем семи морів — Калабрасом намагається заволодіти Черепань — головний лиходій мультсеріалу, але йому ще не вдавалось зробити це. Тривалість: 1 серія: 22:30 (цілком серій: 39)

Перелік серій

01 Початок, частина перша / Origins.Part 1
02 Початок, частина перша / Origins.Part 2
03 Морлок нестримний / Morlock the Unstoppable
04 Відьма за бортом / Witch Overboard
05 Точка замерзання / Freezing Point
06 Голос Хаоса / The Voice of Chaos
07 Полювання на тролів / Troll Divin
08 Загартований вогнем / Forged in Fire
09 Сім морів / The Seas Seven
10 Маяк душі / Lighthouse of the Soul /
11 Битва в пустелі / The Shipwrecked in Sand
12 Віднесені привидами / Spirited Away
13 Втеча з в'язниці / Prison Break
14 Медуза з легенди / A Jellyfish of Legend
15 Обмін / The Swap
16 Апокаліпсис / The Bermuda Apocalypse
17 Останній політ Ікара / The Last Flight of Icarus
18 Лабіринт Мінотавра / The Labyrinth of Minotaur
19 Лемурія атакує / Lemuria Attacks
20 Заколот на Демоніаку / Mutiny on the Demoniac
21 Кроґард грізний / Crogar the Terrible
22 Око циклону / Eye of the Cyclone
23 Пригоди кличуть / Call to Adventure
24 Мудрець / The Wiseman
25 Втеча з порожнечі / Escape from Netherwhere
26 Температурний шок / Thermal Shock
27 Стомлення / Burn Out
28 Випробовування вогнем / Trial by Fire
29 Старий друг Калабраса / Calabrass` Old Friend
30 Лють Блікс / Wrath of Blix
31 Тіло Калабрасса / Calabrass' Body
32 Острів загублених дітей / Island of the Lost children
33 Тана Лост / Tanah Lost
34 Поміж зірок / Between Stars
35 Дружба вікінгів / Viking Connexion
36 Двійник / The Stowaway
37 Вибір Зака / Zak's Choice
38 Втрачена куля / The Lost Orb
39 Останній охоронець / The Last Guardian
Якість: WEB-DL 1080p
Відео:
кодек: H.264
розмір кадру: 1920 х 1080
бітрейт: 4000-7000 кб/с
Аудіо # 1:
мова: українська
переклад: професійний дубльований
кодек: MPA (T2 18 кГц)
бітрейт: 192 кб/с
Аудіо # 2:
мова: англійська
переклад: оригінал
кодек: E-AC3 5.1
бітрейт: 640 кб/с
Джерело озвучення:

Субтитри:
мова: англійська
тип: програмні (м'які)
формат: *.sub

MediaInfo

Format : Matroska
Format version : Version 4
File size : 1.20 GiB
Duration : 22 min 34 s
Overall bit rate mode : Variable
Overall bit rate : 7 627 kb/s
Encoded date : UTC 2022-06-02 13:55:27
Writing application : mkvmerge v68.0.0 ('The Curtain') 64-bit
Writing library : libebml v1.4.2 + libmatroska v1.6.4
Video
ID : 1
Format : AVC
Format/Info : Advanced Video Codec
Format profile :
Format settings : CABAC / 3 Ref Frames
Format settings, CABAC : Yes
Format settings, Reference fra : 3 frames
Codec ID : V_MPEG4/ISO/AVC
Duration : 22 min 34 s
Bit rate mode : Variable
Bit rate : 6 810 kb/s
Maximum bit rate : 10.2 Mb/s
Width : 1 920 pixels
Height : 1 080 pixels
Display aspect ratio : 16:9
Frame rate mode : Constant
Frame rate : 25.000 FPS
Color space : YUV
Chroma subsampling : 4:2:0
Bit depth : 8 bits
Scan type : Progressive
Bits/(Pixel*Frame) : 0.131
Stream size : 1.07 GiB (89%)
Writing library : x264 core 148
Encoding settings : cabac=1 / ref=3 / deblock=1:0:0 / analyse=0x1:0x111 / me=umh / subme=10 / psy=1 / psy_rd=1.00:0.00 / mixed_ref=1 / me_range=24 / chroma_me=1 / trellis=2 / 8x8dct=0 / cqm=0 / deadzone=21,11 / fast_pskip=1 / chroma_qp_offset=-2 / threads=8 / lookahead_threads=1 / sliced_threads=0 / nr=0 / decimate=1 / interlaced=0 / bluray_compat=0 / stitchable=1 / constrained_intra=0 / bframes=2 / b_pyramid=0 / b_adapt=2 / b_bias=0 / direct=3 / weightb=1 / open_gop=0 / weightp=2 / keyint=50 / keyint_min=26 / scenecut=0 / intra_refresh=0 / rc_lookahead=50 / rc=2pass / mbtree=1 / bitrate=6810 / ratetol=1.0 / qcomp=0.50 / qpmin=6 / qpmax=51 / qpstep=4 / cplxblur=20.0 / qblur=0.5 / vbv_maxrate=10215 / vbv_bufsize=13620 / nal_hrd=vbr / filler=0 / ip_ratio=1.40 / aq=1:1.00
Language : English
Default : Yes
Forced : No
Audio #1
ID : 2
Format : MPEG Audio
Format version : Version 1
Format profile : Layer 2
Format settings : Joint stereo / Intensity Stereo + MS Stereo
Codec ID : A_MPEG/L2
Codec ID/Hint : MP2
Duration : 22 min 33 s
Bit rate mode : Constant
Bit rate : 192 kb/s
Channel(s) : 2 channels
Sampling rate : 48.0 kHz
Frame rate : 41.667 FPS (1152 SPF)
Compression mode : Lossy
Stream size : 31.0 MiB (3%)
Title : Дубляж - ПлюсПлюс - by Palamar
Language : Ukrainian
Default : Yes
Forced : No
Audio #2
ID : 3
Format : E-AC-3
Format/Info : Enhanced AC-3
Commercial name : Dolby Digital Plus
Codec ID : A_EAC3
Duration : 22 min 34 s
Bit rate mode : Constant
Bit rate : 640 kb/s
Channel(s) : 6 channels
Channel layout : L R C LFE Ls Rs
Sampling rate : 48.0 kHz
Frame rate : 31.250 FPS (1536 SPF)
Compression mode : Lossy
Stream size : 103 MiB (8%)
Language : English
Service kind : Complete Main
Default : Yes
Forced : No
Text
ID : 4
Format : UTF-8
Codec ID : S_TEXT/UTF8
Codec ID/Info : UTF-8 Plain Text
Duration : 22 min 21 s
Bit rate : 76 b/s
Count of elements : 395
Stream size : 12.6 KiB (0%)
Title : SDH
Language : English
Default : No
Forced : No

Скріншоти

Джерело:
Особиста оцінка: 10 - без зайвих вагань рекомендую всім!
Запис із ТБ, робота зі звуком: xSlim

Anonymous

Опублікувати 16-Чер-2022 08:54

[Цитувати]

Легенди Спарка (Сезон 1) / Legends of Spark (Season 1) (2021) WEBRip 1080p 2xUkr Жанр: дитячий, пригоди, сімейний
Країна: Китай
Режисери: Юань Чао, Чжан Юлін, Янг Ай
Сюжет:Цей дитячий мультсеріал розповідає про захоплюючі пригоди юної машинки на ім'я Спарк. Він працює в сервісі Старлайт автомеханіком і обожнює все, що пов'язано з автомобілями. Крім того, у Спарка є заповітна мрія вийти на трек і стати справжнім Супергонщиком, перемігши іменитих суперників. Одного разу Спарк знаходить загадковий бластер, і з цього моменту його життя круто змінюється, наближаючись до мрії! Звичайно, початківця чекають виснажливі тренування і по-справжньому космічні випробування, але з допомогою друзів можливо все.

Перелік серій згідно трансляції:

Сезон 1:
01.Call of the engine
02.The unexpected challenger
03.The heart of the sprocket
04.In hot pursuit
05.The most beautiful racer
06.The gate of mount tyre
07.The high-altitude trial
08.Legend of the ruler
09.The treasure hunt
10.On the precipice
11.Return of the ruler
12.Duelling Racetrack Battle
13.Bellows the expert
14.The Rainbow Spirit
15.Camp Illusion
16.The Wonderful Shooting Star
17.Battle of the racers
18.Tornado drift
19.Crisis at the gas Station
20.Snowy Mountain Rescue
21.Ice pickup
22.Following the frost trails
23.The mysterious drink
24.Over the limit
25.Fog of time
26.Let the games begin
27.Birthday panic
28.Find flash
29.Turning back time
30.The sound of the return bell
31.Proof in the sandstorm
32.The desert ghost
33.Marshalls plan
34.Journey throught the Dunes
35.Modification Battle
36.Rhythm master
37.The best of partners
38.Racer detectives club
39.Lucky paintjob
40.Burning memories
41.Lava crisis
42.Secret of the libra Racetrack
43.Secrets of speed
44.Inescapable nightmare
45.Tyretown Dance Contest
46.Storm Chase
47.The unstoppable thunderbolt
48.Electromagnetic core breakthrought
49.Horus heir
50.Dreams of the future
51.The finale battle (Part 1)
52.The finale battle (Part 2)
Тривалість: ~ 00:13:06
Якість: WEBRip 1080p
Відео:
кодек: H.264
розмір кадру: 1920 х 1080
бітрейт: ~7890 кб/с
частота кадрів: 25 к/с (fps)
Аудіо #1:
мова: українська
переклад: професійний дубльований
кодек: AC3 2.0
бітрейт: 192 кб/с
запис звуку з каналу: ПлюсПлюс SD (T2)
Аудіо #1:
мова: українська
переклад: двоголосий закадровий
кодек: AC3 2.0
бітрейт: 192 кб/с
джерело: gulli.fr
озвучено: Тамара Люльчак і Антон Чернецький у Iyuno-SDI Group Latvia на замовлення Gulli

Media info:

General
Unique ID : 305975418015696296802897986307017153697 (0xE630B8D3B3285CC57F86F4A77B341CA1)
Format : Matroska
Format version : Version 4
File size : 776 MiB
Duration : 13 min 6 s
Overall bit rate : 8 276 kb/s
Movie name : Legends of Spark_s01e20_-_Snowy Mountain Rescue [2xUkr] WEB-DL 1080p [Hurtom]
Encoded date : UTC 2022-06-05 15:03:23
Writing application : mkvmerge v68.0.0 ('The Curtain') 64-bit
Writing library : libebml v1.4.2 + libmatroska v1.6.4
Cover : Yes
Attachments : cover.jpg
Video
ID : 1
Format : AVC
Format/Info : Advanced Video Codec
Format profile :
Format settings : CABAC / 6 Ref Frames
Format settings, CABAC : Yes
Format settings, Reference : 6 frames
Codec ID : V_MPEG4/ISO/AVC
Duration : 13 min 6 s
Bit rate : 7 891 kb/s
Width : 1 920 pixels
Height : 1 080 pixels
Display aspect ratio : 16:9
Frame rate mode : Constant
Frame rate : 25.000 FPS
Color space : YUV
Chroma subsampling : 4:2:0
Bit depth : 8 bits
Scan type : Progressive
Bits/(Pixel*Frame) : 0.152
Stream size : 739 MiB (95%)
Title : Legends of Spark_s01e20_-_Snowy Mountain Rescue
Language : English
Default : No
Forced : No
Audio #1
ID : 2
Format : AC-3
Format/Info : Audio Coding 3
Commercial name : Dolby Digital
Codec ID : A_AC3
Duration : 13 min 6 s
Bit rate mode : Constant
Bit rate : 192 kb/s
Channel(s) : 2 channels
Channel layout : L R
Sampling rate : 48.0 kHz
Frame rate : 31.250 FPS (1536 SPF)
Compression mode : Lossy
Delay relative to video : -200 ms
Stream size : 18.0 MiB (2%)
Title : Українська доріжка (ПлюсПлюс)
Language : Ukrainian
Service kind : Complete Main
Default : Yes
Forced : No
Audio #2
ID : 3
Format : AC-3
Format/Info : Audio Coding 3
Commercial name : Dolby Digital
Codec ID : A_AC3
Duration : 13 min 5 s
Bit rate mode : Constant
Bit rate : 192 kb/s
Channel(s) : 2 channels
Channel layout : L R
Sampling rate : 48.0 kHz
Frame rate : 31.250 FPS (1536 SPF)
Compression mode : Lossy
Delay relative to video : -200 ms
Stream size : 18.0 MiB (2%)
Title : Українська доріжка (gulli)
Language : Ukrainian
Service kind : Complete Main
Default : No
Forced : No

Скріншоти:






Семпл:

Джерело 1_______Джерело 2_______Джерело 3_______Джерело 4_______Джерело 5_______Джерело 6_______Джерело 7
У випадку, якщо з усіх джерел семпл видалять, прохання повідомити мені у ПРИВАТ
Подяка:1. Пану urij546724 за запис з ТБ.Реліз створено: за підтримки BMK12

Anonymous

Опублікувати 16-Чер-2022 08:54

[Цитувати]

Амфібія (Сезон 2, серії 1-2) / Amphibia (Season 2, episodes 1-2) (2020-2021) WEBRip 1080p Ukr/Eng Жанр: комедія, пригодницький, сімейний, фентезі
Країна: США

Кінокомпанія / телеканал: Disney Channel
Режисери/творці: Кім Роберсон, Дерек Кірк Кім, Берт Юн
Актори: Бренда Сонг, Джастін Фелбінгер, Біл Фармер, Аманда Лейтон, Джеймс Патрік Стюарт та інші.
Сюжет:Сюжет мультсеріалу розповідає про пригоди егоїстичної тринадцятирічної дівчинки на ім'я Енн Бунчуй. Після крадіжки таємничої скриньки, вона чарівним чином переноситься в Амфібію - дике місце, населене жабами, які розмовляють.
Скоро наша героїня зустрічає молодого жабеня на ім'я Брунько Квітник. Дівчинка і жабеня стають хорошими друзями. Брунько буде провідником для Енн в цьому дивному для неї світі. А, ставши справжніми друзями, вони будуть готові пройти через будь-які перешкоди, труднощі і пастки, які будуть чекати їх на кожному кроці.
Перекладено та озвучено студією сайту simpsonsua.tv
Тривалість: 1 серія: ~ 11 хв. (цілком серій: 2/40)

Перелік серій:

01. Вправна Енн
02. Споруда на шляху
Якість: WEBRip 1080p
Відео:
кодек: H.264
розмір кадру: 1920 x 1080
бітрейт: ~ 5000 кб/с
Аудіо # 1:
мова: українська | "simpsonsua.tv"
озвучення: професійне багатоголосе закадрове
кодек: AC3 2.0
бітрейт: 512 кб/с
Аудіо # 2:
мова: англійська
переклад: оригінал
кодек: AAC 2.0
бітрейт: 64 кб/с

Скріншоти

->>> Усі релізи цього мультсеріалу на Гуртом <<<Озвучено студією сайту:

Anonymous

Опублікувати 16-Чер-2022 08:54

[Цитувати]

Кролик Пітер (Сезон 1, 53 серії з 55; Сезон 2, 2 серії з 55) / Peter Rabbit (Season 1-2) (2012-2016) WEB-DL 1080p Ukr\Eng | sub Eng Жанр: анімація, пригодницький, сімейний
Країна: США, Великобританія, Ірландія

Кіностудія / кінокомпанія: Brown Bag Films, Silvergate Media
Режисери: Девід МакКемлі (David McCamley)
Актори англомовної версії: Сонні Стрейт (Sonny Strait), Пітер Харріс (Peter Harris), Мікаела Дін (Michaela Dean), Марк Хакербі (Mark Huckerby), Джей Бі Бланк (JB Blanc)...
Сюжет:Пітер - надзвичайно хоробрий і безстрашний кролик, завжди готовий захистити та виручити друзів та сім'ю. Кролик, насправді, часто змушений жонглювати небезпеками та пастками, які таяться у лісі (згадайте, наприклад, зрадницький напад лисиці чи пастки, розставлені безсовісною мишею). Духовним наставником Петра є його покійний батько, який заповів йому свого роду щоденник-керівництво, що містить цінні поради, як стати чесним та добрим кроликом.

Перелік серій&#58;

Сезон 1:
01.Peter Rabbit's Christmas Tale
02.The Tale of the Radish Robber
03.The Tale of Two Enemies
04.The Tale of the Greedy Fox
05.The Tale of the Secret Treehouse
06.The Tale of Benjamin's Strawberry Raid
07.The Tale of the Lying Fox
08.The Tale of the Angry Cat
09.The Tale of Mr. Tod's Trap
10.The Tale of Nutkin on the Run
11.The Tale of the Wriggly Worms
12.The Tale of Jemima's Egg
13.The Tale of the Lucky Four Leaf Clover
14.The Tale of the Unguarded Garden
15.The Tale of the Great Breakout
16.The Tale of the Start of Spring
17.The Tale of the Mother's Day Pie
18.The Tale of the Mystery Plum Thief
19.The Tale of the Grumpy Owl
20.The Tale of the Big Move
21.The Tale of the Lost Tunnels
22.The Tale of the Downhill Escape
23.The Tale of the Cat and the Rat
24.The Tale of the Dash in the Dark
25.The Tale of the Hazelnut Raid
26.The Tale of the Broken Bed
27.The Tale of the One That Got Away
28.The Tale of the Runaway Kites
29.The Tale of the Hero Rabbit
30.The Tale of the Falling Rock
31.The Tale of Cotton-tail's New Friend
32.The Tale of Benjamin's New Map
33.The Tale of the Surprising Sisters
34.The Tale of the Wrecked Treehouse
35.The Tale of the Stolen Firewood
36.The Tale of Cotton-Tail's Cake
37.The Tale of the Terrible Trap
38.The Tale of the Flying Fox
39.The Tale of the True Friends
40.The Tale of the Giant Pumpkin
41.The Tale of the Peek-A-Boo Rabbits
42.The Tale of the Great Rabbit and Squirrel Adventure
43.The Tale of Old Brown's Feather
44.The Tale of Jeremy Fisher's Musical Adventure
45.The Tale of the Lost Ladybird
46.The Tale of Old Rusty
47.The Tale of the Squeaky Toy
48.The Tale of the Flying Rabbits
49.The Tale of the Puddleduck Disaster*
50.The Tale of Jeremy Fisher's Recital
51.The Tale of the Squirrel Hotpot*
52.The Tale of the Fierce Bad Rabbit
53.The Tale of the Runaway Rabbits
54.The Tale of the Uninvited Badger
55.The Tale of the Brewing Storm
Сезон 2:
31.The Tale of The Kitten and Pig Adventure
47.The Tale of The Unexpected Discovery
* - червоним виділено відсутні серії 1-го сезону
Тривалість: ~ 00:23:16 (s01e01, s01e16, s01e42, s02e31, s02e47); ~ 00:12:10 (решта серій)
Якість: WEB-DL 1080p
Відео:
кодек: H.264
розмір кадру: 1920 х 1080
бітрейт: ~3881-6048 кб/с
частота кадрів: 25 к/с (fps)
Аудіо #1:
мова: українська
переклад: багатоголосий закадровий
кодек: AC3 2.0
бітрейт: 192 кб/с
запис звуку з каналу: Піксель
Аудіо #2:
мова: англійська
переклад: оригінал
кодек: E-AC3 2.0
бітрейт: 128 кб/с (s01e01, s01e16, s01e42, s02e31, s02e47), 224 кб/с (решта серій)
Субтитри #1:
мова: англійська
тип: програмні (м'які)
формат: *.srt

Media info&#58;

General
Unique ID : 195521387871007288137711609814088847322 (0x93180CB06A75EC9711F16D7B92F68FDA)
Format : Matroska
Format version : Version 4
File size : 563 MiB
Duration : 12 min 10 s
Overall bit rate : 6 468 kb/s
Movie name : Peter Rabbit_s01e34_-_The Tale of the Wrecked Treehouse [ukr_eng, sub eng] WEB-DL 1080p [Hurtom]
Encoded date : UTC 2022-05-25 17:03:43
Writing application : mkvmerge v68.0.0 ('The Curtain') 64-bit
Writing library : libebml v1.4.2 + libmatroska v1.6.4
Cover : Yes
Attachments : cover.jpg
Video
ID : 1
Format : AVC
Format/Info : Advanced Video Codec
Format profile :
Format settings : CABAC / 4 Ref Frames
Format settings, CABAC : Yes
Format settings, Reference : 4 frames
Codec ID : V_MPEG4/ISO/AVC
Duration : 12 min 9 s
Bit rate : 6 048 kb/s
Width : 1 920 pixels
Height : 1 080 pixels
Display aspect ratio : 16:9
Frame rate mode : Constant
Frame rate : 25.000 FPS
Color space : YUV
Chroma subsampling : 4:2:0
Bit depth : 8 bits
Scan type : Progressive
Bits/(Pixel*Frame) : 0.117
Stream size : 526 MiB (94%)
Title : Peter Rabbit_s01e34_-_The Tale of the Wrecked Treehouse [ukr_eng, sub eng] WEB-DL 1080p [Hurtom]
Language : English
Default : Yes
Forced : No
Color range : Limited
Color primaries : BT.709
Transfer characteristics : BT.709
Matrix coefficients : BT.709
Audio #1
ID : 2
Format : AC-3
Format/Info : Audio Coding 3
Commercial name : Dolby Digital
Codec ID : A_AC3
Duration : 12 min 10 s
Bit rate mode : Constant
Bit rate : 192 kb/s
Channel(s) : 2 channels
Channel layout : L R
Sampling rate : 48.0 kHz
Frame rate : 31.250 FPS (1536 SPF)
Compression mode : Lossy
Delay relative to video : -80 ms
Stream size : 16.7 MiB (3%)
Title : Українська доріжка
Language : Ukrainian
Service kind : Complete Main
Default : Yes
Forced : No
Audio #2
ID : 3
Format : E-AC-3
Format/Info : Enhanced AC-3
Commercial name : Dolby Digital Plus
Codec ID : A_EAC3
Duration : 12 min 9 s
Bit rate mode : Constant
Bit rate : 224 kb/s
Channel(s) : 2 channels
Channel layout : L R
Sampling rate : 48.0 kHz
Frame rate : 31.250 FPS (1536 SPF)
Compression mode : Lossy
Delay relative to video : -80 ms
Stream size : 19.5 MiB (3%)
Title : Оригінальна доріжка
Language : English
Service kind : Complete Main
Default : No
Forced : No
Text
ID : 4
Format : UTF-8
Codec ID : S_TEXT/UTF8
Codec ID/Info : UTF-8 Plain Text
Duration : 11 min 57 s
Bit rate : 65 b/s
Count of elements : 306
Stream size : 5.69 KiB (0%)
Title : Англійські субтитри
Language : English
Default : No
Forced : No

Скріншоти&#58;






Семпл&#58;

Джерело 1_______Джерело 2_______Джерело 3_______Джерело 4_______Джерело 5_______Джерело 6_______Джерело 7
У випадку, якщо з усіх джерел семпл видалять, прохання повідомити мені у ПРИВАТ
Подяка:1. Пану urij546724 і Пану xslim за запис звуку.Реліз створено: за підтримки BMK12

Anonymous

Опублікувати 16-Чер-2022 08:54

[Цитувати]

Любов, смерть та роботи (Сезон 1-3) / Love, Death & Robots (Season 1-3) (2019-2022) WEB-DLRip 1080p H.265 3xUkr/Eng | Sub Ukr/Eng- - -

1. Любов, смерть та роботи (Сезон 1&#41; / Love, Death &amp; Robots (Season 1&#41; (2019&#41; WEB-DLRip 1080p H.265 3xUkr/Eng | Sub Ukr/Eng

Любов, смерть та роботи (Сезон 1) / Love, Death & Robots (Season 1) (2019) WEB-DLRip 1080p H.265 3xUkr/Eng | Sub Ukr/Eng- - -Жанр: анімація, жахи, фантастика, фентезі, комедія, бойовик, кримінал
Країна: США
Кінокомпанія: Blur Studio, NetFlix
Режисер: Віктор Малдонадо, Альфредо Торрес, Тім Міллер
Актори: Скотт Вайт, Нолан Норс, Метью Янг Кінг, Джош Бренер, Еллі Кондрон та інші
Сюжет:Netflix здивує вас пропонуючи вам серію короткометрівок в якій поєднуються одразу кілька жанрів: фентезі, жахи, наукова фантастика, комедія. Кожна серія - це окрема історія зі своїм неповторним сюжетом. Тут можна побачити теми расизму, проблеми війни, особистих відносин, боротьби за свободу і незалежність, і багато іншого. У замальовках беруть участь найнеймовірніші персонажі. Це і роботи-мисливці за головами, інопланетні почвари, демони, перевертні, і навіть розумні продукти харчування.Тривалість: 1 серія: ~15:00 (цілком серій: 18)

Перелік серій

01. Sonnie's Edge / Край Соні
02. Three Robots / Три Роботи
03. The Witness / Свідок
04. Suits / Форс-мажор
05. Sucker of Souls / Висмоктувач душ
06. When the Yogurt Took Over / Коли до влади прийшов Йогурт
07. Beyond the Aquila Rift / За розломом Акіла
08. Good Hunting / Славне полювання
09. The Dump / Звалище
10. Shape-Shifters / Перевертні
11. Helping Hand / Рука допомоги
12. Fish Night / Рибна ніч
13. Lucky 13 / Щасливчик 13
14. Zima Blue / Зима Блакить
15. Blind Spot / Сліпа зона
16. Ice Age / Льодовиковий період
17. Alternate Histories / Альтернативні історії
18. The Secret War / Секретна війна
Якість: WEB-DLRip
Відео:
кодек: H.265 (HEVC)
розмір кадру: 1920 x 960
бітрейт: 6 404 кб/с
бітова глибина: 10 біт-Увага! Перед завантаженням переконайтесь, що ваш пристрій відтворення (та/або ПЗ) підтримує H.265 (HEVC)-Аудіо # 1:
мова: українська
озвучення: професійне дубльоване
кодек: E-AC-3 5.1
бітрейт: 640 кб/с
Аудіо # 2:
мова: українська
озвучення: багатоголосе закадрове | Студія "DniproFilm"
кодек: AC-3 5.1
бітрейт: 384 кб/с
Аудіо # 3:
мова: українська
озвучення: багатоголосе закадрове | Озвучка AdrianZP
кодек: AC-3 5.1
бітрейт: 448 кб/с
Аудіо # 4:
мова: англійська
озвучення: оригінал
кодек: AC-3 5.1
бітрейт: 384 кб/с
Субтитри # 1: (Forced from Netflix)
мова: українська
тип: програмні (м'які)
формат: *.srt
Субтитри # 2: (Forced by DniproFilm)
мова: українська
тип: програмні (м'які)
формат: *.srt
Субтитри # 3: (Full from Netflix)
мова: українська
тип: програмні (м'які)
формат: *.srt
Субтитри # 4: (1-6 Епізоди)
мова: українська (Full (Strugachka)),
тип: програмні (м'які)
формат: *.srt
Субтитри # 5: (1-11 епізоди)
мова: українська (Full (SubAutumn)),
тип: програмні (м'які)
формат: *.srt
Субтитри # 6-7: (Full, SDH)
мова: англійська
тип: програмні (м'які)
формат: *.srt-

2. Любов, смерть та роботи (Сезон 2&#41; / Love, Death &amp; Robots (Season 2&#41; (2021&#41; WEB-DLRip 1080p H.265 2xUkr/Eng | Sub Ukr/Eng

Любов, смерть та роботи (Сезон 2) / Love, Death & Robots (Season 2) (2021) WEB-DLRip 1080p H.265 2xUkr/Eng | Sub Ukr/Eng- -Жанр: анімація, трилер, жахи, фантастика, пригодницький
Країна: США

Кінокомпанія: Atoll Studio, Passion Animation Studios, Unit Image, Axis Animation, Blur Studio, Netflix
Режисер: Кевін Дан Вер Мейрен, Девід Ніколас, Лоран Ніколас, Роберт Веллі, Дженніфер Ю Нельсон, Леон Берелл, Домінік Бойдін, Ремі Козира, Максіме Луере, Тім Міллер
Актори: Ненсі Лінарі, Себастіан Крофт, Нолан Норт, Зіта Ганрот, Джо Демпсі, Семі Амбер, Майкл Бі Джордан та інші.
Сюжет:«Любов, смерть і роботи» — американський анімаційний телесеріал-антологія для дорослих. Цей серіал-антологія є переосмисленням та перезапуском анімаційного науково-фантастичного фільму «Важкий метал» 1981 року. Серіал спродюсували Девід Фінчер і Тім Міллер. Кожен епізод у антології був створений різними анімаційними студіямиТривалість: 1 серія: ~15:00 (цілком серій: 8)

Перелік серій

01. Automated Customer Service / Автоматизована служба підтримки
02. Ice / Крига
03. Pop Squad / Контроль популяції
04. Snow in the Desert / Сніг у пустелі
05. The Tall Grass / Висока трава
06. All Through the House / Ніч перед різдвом
07. Life Hutch / Укриття
08. The Drowned Giant / Утоплений велетень
Якість: WEB-DLRip
Автор ріпу: -Star-Lord-
Відео:
кодек: H.265 (HEVC)
розмір кадру: 1920 x 960
бітрейт: 3 531 кб/с
бітова глибина: 10 біт-Увага! Перед завантаженням переконайтесь, що ваш пристрій відтворення (та/або ПЗ) підтримує H.265 (HEVC)-Аудіо # 1:
мова: українська
озвучення: професійне дубльоване
кодек: E-AC-3 5.1
бітрейт: 640 кб/с
Аудіо # 2:
мова: українська
озвучення: багатоголосе закадрове | Студія "DniproFilm"
кодек: AC-3 5.1
бітрейт: 384 кб/с
Аудіо # 3:
мова: англійська
озвучення: оригінал
кодек: E-AC-3 5.1
бітрейт: 768 кб/с
Субтитри # 1-3: (Forced from Netflix, Forced by DniproFilm, Full from Netflix)
мова: українська
тип: програмні (м'які)
формат: *.srt
Субтитри # 4-5: (Full, SDH)
мова: англійська
тип: програмні (м'які)
формат: *.srt-

Світлини








3. Любов, смерть та роботи (Сезон 3&#41; / Love, Death &amp; Robots (Season 3&#41; (2022&#41; WEB-DLRip 1080p H.265 3xUkr/Eng | Sub Ukr/Eng

Любов, смерть та роботи (Сезон 3) / Love, Death & Robots (Season 3) (2022) WEB-DLRip 1080p H.265 3xUkr/Eng | Sub Ukr/Eng Жанр: анімація, жахи, трилер, фантастика, пригодницький, бойовик, екшн
Країна: США

Кінокомпанія: Netflix
Режисер: Віктор Малдонадо, Альфредо Торрес, Тім Міллер
Сюжет:Моторошні світи, дивні істоти та заплутані історії чекають на вас у третьому сезоні анімаційної антології Тіма Міллера й Девіда Фінчера, що здобула премію «Еммі».

Перелік серій

«Три роботи: стратегії виходу». Сезон 3, епізод 1.
Три роботи входять у постапокаліптичне місто… І влаштовують собі екскурсію по останніх спробах людства врятуватися.
«Погана поїздка». Сезон 3, епізод 2.
Випустити танапода! Член екіпажу корабля, що пливе океаном іншої планети, укладає угоду з ненажерливим монстром із глибин.
«Прекрасний пульс машини». Сезон 3, епізод 3.
Дослідницька місія на супутник Юпітера завершується катастрофою. Самотня вціліла вирушає в небезпечну, але пізнавальну подорож.
«Ніч мінімерців». Сезон 3, епізод 4.
Трохи нечестивий секс на кладовищі погано закінчується, адже спричиняє світове нашестя зомбі. Наймиліший апокаліпсис із можливих.
«Смертельний загін». Сезон 3, епізод 5.
Спецпідрозділи США зможуть нейтралізувати будь-яку загрозу — навіть кібернетичну машину для вбивства, яку створили в ЦРУ. Їхня секретна зброя? Почуття гумору.
«Рій». Сезон 3, епізод 6.
Двоє вчених-людей намагаються розгадати таємниці стародавньої інопланетної сутності, але незабаром дізнаються жахливу ціну виживання у ворожому світі.
«Щури Мейсона». Сезон 3, епізод 7.
Це справжній щуропокаліпсис! Фермер Мейсон дізнається, що проблеми зі шкідниками вийшли з-під контролю, коли ті починають відстрілюватися. Прокляття!
«Поховані у склепінчастій залі». Сезон 3, епізод 8.
Сучасне мистецтво війни проти стародавніх богів. Спецпризначенці під час звільнення заручників потрапляють у пастку у в’язниці, де живе вікове зло.
«Джібаро». Сезон 3, епізод 9.
Глухий лицар і міфічна сирена сплітаються в смертельному танці. Фатальна одержимість, сповнена крові, смертей і скарбів.
Якість: WEB-DLRip
Автор ріпу: -Star-Lord-
Відео:
кодек: H.265 (HEVC)
розмір кадру: 1920 x 960
бітрейт: 4 020 кб/с
бітова глибина: 10 біт-Увага! Перед завантаженням переконайтесь, що ваш пристрій відтворення (та/або ПЗ) підтримує H.265 (HEVC)-Аудіо # 1:
мова: українська
озвучення: професійне дубльоване
кодек: AAC 2.0
бітрейт: 192 кб/с
Аудіо # 2:
мова: українська
озвучення: багатоголосе закадрове | Студія "DniproFilm" на замовлення
кодек: AC-3 5.1
бітрейт: 384 кб/с
Аудіо # 3:
мова: українська
озвучення: багатоголосе закадрове | BaibaKo.TV
кодек: AC-3 5.1
бітрейт: 384 кб/с
Аудіо # 4:
мова: англійська
озвучення: оригінал
кодек: E-AC-3 5.1
бітрейт: 768 кб/с
Субтитри # 1-2: (Forced, Full from Netflix)
мова: українська
тип: програмні (м'які)
формат: *.srt
Субтитри # 3-4: (Full, SDH)
мова: англійська
тип: програмні (м'які)
формат: *.srt-

Світлини









-Джерело: &
Особиста оцінка: 10 - без зайвих вагань рекомендую всім!
 

Поточний час: 04-Лип 22:33

Часовий пояс: UTC ± 0